<?xml version="1.0" standalone="no"?>
<!DOCTYPE svg PUBLIC "-//W3C//DTD SVG 1.1//EN" "http://www.w3.org/Graphics/SVG/1.1/DTD/svg11.dtd" >
<svg xmlns="http://www.w3.org/2000/svg" xmlns:xlink="http://www.w3.org/1999/xlink" version="1.1">
<metadata>
Created by FontForge 20150824 at Wed Aug  3 07:45:13 2016
 By Everything Fonts
Copyright (c) 1989, 1990 Adobe Systems Incorporated.  All Rights Reserved.
</metadata>
<defs>
<font id="nuptialscript" horiz-adv-x="333" >
  <font-face 
    font-family="nuptialscript"
    font-weight="500"
    font-style="italic"
    font-stretch="normal"
    units-per-em="1000"
    panose-1="2 0 6 4 2 0 0 9 0 2"
    ascent="800"
    descent="-200"
    x-height="270"
    cap-height="588"
    bbox="-216 -295 1000 842"
    underline-thickness="50"
    underline-position="-175"
    slope="-21"
    unicode-range="U+0020-FB02"
  />
<missing-glyph horiz-adv-x="166" 
 />
    <glyph glyph-name=".notdef" horiz-adv-x="166" 
 />
    <glyph glyph-name=".null" horiz-adv-x="0" 
 />
    <glyph glyph-name="nonmarkingreturn" horiz-adv-x="166" 
 />
    <glyph glyph-name="space" unicode=" " horiz-adv-x="166" 
 />
    <glyph glyph-name="space" unicode="&#xa0;" horiz-adv-x="166" 
 />
    <glyph glyph-name="exclam" unicode="!" 
d="M334 518q-11 0 -20 -11.5t-16.5 -28t-14 -35t-12.5 -32.5q-33 -84 -56 -138t-36.5 -86t-19.5 -46.5t-6 -18.5q0 -5 1 -5.5t3 -0.5q5 0 11 9.5t19 35.5q27 54 56 108t53.5 100t40.5 80t16 46q0 10 -5.5 16.5t-13.5 6.5zM120 66q-13 0 -23 -8t-10 -25t10 -25t23 -8t23 8
t10 25t-10 25t-23 8z" />
    <glyph glyph-name="quotedbl" unicode="&#x22;" 
d="M306 535q1 9 1.5 23t-2 27t-9.5 22t-21 9t-21 -9t-9.5 -22t-2 -27t1.5 -23l16 -204q0 -3 0.5 -8t2 -10.5t4 -9t8.5 -3.5t8.5 3.5t4 9t2 10.5t0.5 8zM169 535q1 9 1.5 23t-2 27t-9.5 22t-21 9t-21 -9t-9.5 -22t-2 -27t1.5 -23l16 -204q0 -3 0.5 -8t2 -10.5t4 -9t8.5 -3.5
t8.5 3.5t4 9t2 10.5t0.5 8z" />
    <glyph glyph-name="numbersign" unicode="#" 
d="M291 154h-56l11 91h59l2 24h-57l18 131h-29l-18 -131h-80l18 131h-29l-18 -131h-69l-2 -24h68l-13 -91h-68l-3 -24h68l-19 -130h29l18 130h81l-19 -130h29l18 130h59zM218 245l-13 -91h-80l12 91h81z" />
    <glyph glyph-name="dollar" unicode="$" 
d="M171 179q14 -27 24 -51t10 -40q0 -21 -7 -35.5t-19 -24t-27 -14t-31 -4.5q-8 0 -12 0.5t-9 2.5zM260 384q24 -11 34.5 -27t10.5 -36q0 -8 -1 -16t-1 -13q0 -6 6 -6q4 0 8 5.5t6.5 13t4 15t1.5 11.5q0 24 -18.5 43t-42.5 30q7 18 16 35t9 22q0 7 -9 7q-3 0 -7.5 -6
t-9 -15.5t-8.5 -20t-8 -19.5q-5 1 -13 1q-21 0 -43 -6.5t-39 -18.5t-28 -30.5t-11 -42.5q0 -20 13.5 -49.5t30.5 -61.5l-77 -183q-23 8 -42 26t-19 42q0 30 7 41t7 14q0 4 -3 4q-15 0 -25 -18t-10 -35q0 -41 22 -63t55 -29q-12 -28 -20.5 -46.5t-13 -29.5t-6.5 -16t-2 -7
q0 -7 6 -7t12 11t12.5 27t13.5 34t14 31q6 -1 12.5 -2t13.5 -1q22 0 47 7t45 20.5t33.5 33t13.5 45.5q0 36 -20 72.5t-38 73.5zM189 264q-9 18 -14.5 36.5t-5.5 35.5q0 27 20 40.5t44 13.5q6 0 10 -1z" />
    <glyph glyph-name="percent" unicode="%" horiz-adv-x="667" 
d="M158 -21q5 0 12 8.5t13.5 19.5t13 23t10.5 20q19 35 49 89.5t64 115.5t68.5 122.5t62 111.5t44.5 81.5t17 33.5q0 6 -9 6q-5 0 -8 -4q-1 -1 -8.5 -14t-18.5 -32.5t-24 -43t-25.5 -45.5t-22.5 -40l-15 -27q-7 -13 -27 -48.5t-45.5 -81t-53.5 -96t-51.5 -92.5t-38.5 -70
t-15 -30q0 -5 8 -7zM296 590q-42 0 -81 -26.5t-68.5 -66.5t-47.5 -85.5t-18 -84.5q0 -37 17 -63t57 -26q42 0 81 26t68 65t46.5 84.5t17.5 84.5q0 18 -3.5 34.5t-12 29.5t-22 20.5t-34.5 7.5zM304 572q14 0 30 -9.5t16 -32.5q0 -17 -10.5 -43.5t-27.5 -57t-38.5 -61.5
t-44.5 -56t-44.5 -40.5t-38.5 -15.5q-21 0 -30 9t-9 29q0 14 9.5 40.5t25 57.5t35.5 63t42 58t44 42.5t41 16.5zM507 352q-42 0 -81 -26.5t-68.5 -66.5t-47.5 -85.5t-18 -84.5q0 -37 17 -63t57 -26q42 0 81 26t68 65t46.5 84.5t17.5 84.5q0 18 -3.5 34.5t-12 29.5t-22 20.5
t-34.5 7.5zM515 334q14 0 30 -9.5t16 -32.5q0 -17 -10.5 -43.5t-27.5 -57t-38.5 -61.5t-44.5 -56t-44.5 -40.5t-38.5 -15.5q-21 0 -30 9t-9 29q0 14 9.5 40.5t25 57.5t35.5 63t42 58t44 42.5t41 16.5z" />
    <glyph glyph-name="ampersand" unicode="&#x26;" horiz-adv-x="611" 
d="M485 420q0 -21 -5.5 -36t-12.5 -24.5t-12.5 -15.5t-5.5 -9q0 -6 6 -6q7 0 19 8t22.5 20.5t18.5 28t8 30.5q0 16 -7.5 28.5t-19.5 21.5t-26.5 13.5t-28.5 4.5q-29 0 -56.5 -16.5t-51.5 -42t-42.5 -56.5t-28.5 -61q-1 -3 -15 -11t-35 -21.5t-45 -32t-45 -42t-34.5 -51.5
t-13.5 -60q0 -45 23.5 -67.5t67.5 -22.5q27 0 50 12t42 31q14 -20 37 -32t49 -12q42 0 64.5 7.5t39.5 19.5q14 10 21 20.5t7 14.5q0 5 -6 5q-4 0 -6 -2t-4.5 -5t-6.5 -7.5t-13 -10.5q-23 -15 -41.5 -20t-44.5 -5q-23 0 -46 9t-29 36q25 26 49.5 54.5t48.5 61.5
q20 28 39 42.5t34 14.5q14 0 25.5 -12.5t11.5 -25.5q0 -2 -1 -5.5t2 -3.5q6 0 13.5 11.5t7.5 22.5q0 20 -14 27.5t-35 7.5q-12 0 -26 -9t-27.5 -21.5t-24 -25.5t-15.5 -21q-5 -9 -17 -23t-25.5 -29.5t-27 -29.5t-21.5 -22q-1 -1 -2.5 15t-1.5 32q0 55 8.5 103t25.5 100
q21 63 56 102t79 39q24 0 34.5 -12t10.5 -34zM255 288q-26 -67 -26 -136q0 -26 4 -51t16 -48q-17 -17 -41.5 -26t-44.5 -9q-26 0 -36.5 20.5t-10.5 41.5q0 39 10 69t28 54.5t43 45t56 39.5l2 -2v2z" />
    <glyph glyph-name="quotesingle" unicode="'" horiz-adv-x="222" 
d="M192 535q1 9 1.5 23t-2 27t-9.5 22t-21 9t-21 -9t-9.5 -22t-2 -27t1.5 -23l16 -204q0 -3 0.5 -8t2 -10.5t4 -9t8.5 -3.5t8.5 3.5t4 9t2 10.5t0.5 8z" />
    <glyph glyph-name="parenleft" unicode="(" horiz-adv-x="389" 
d="M354 527q-65 -60 -125 -123.5t-105.5 -132t-72.5 -142t-27 -153.5q0 -31 5 -66t11.5 -64t13 -48.5t10.5 -19.5q2 1 5 1.5t3 5.5t-9 39t-9 103q0 50 17 106.5t44.5 114.5t62.5 114t70.5 105t68.5 88t57 62q27 27 44.5 44t28 27.5t14.5 15t4 6.5q0 6 -5 6q-4 0 -17 -10
t-29.5 -24.5t-33 -29.5t-26.5 -25z" />
    <glyph glyph-name="parenright" unicode=")" horiz-adv-x="389" 
d="M335 467q0 -50 -17 -106.5t-44.5 -114.5t-62.5 -114t-70.5 -105t-68.5 -88t-57 -62q-27 -27 -44.5 -44t-28 -27.5t-14.5 -15t-4 -6.5q0 -6 5 -6q4 0 17 10t29.5 24.5t33 29.5t26.5 25q65 60 125 123.5t105.5 132t72.5 142t27 153.5q0 31 -5 66t-11.5 64t-13 48.5
t-10.5 19.5q-2 -1 -5 -1.5t-3 -5.5t9 -39t9 -103z" />
    <glyph glyph-name="asterisk" unicode="*" 
d="M223 472l88 24q20 5 30.5 10t10.5 20q0 5 -5 9.5t-10 4.5q-7 0 -23 -8t-34 -18t-34.5 -19.5t-24.5 -12.5q1 9 6 25.5t10 34t9 33t4 23.5q0 18 -17 18q-19 0 -19 -18q0 -21 -3 -54t-4 -62q-6 5 -21 20l-30.5 30.5t-29 27.5t-17.5 12q-10 0 -15.5 -5.5t-5.5 -11.5
q0 -11 13 -18.5t26 -15.5l72 -48l-82 -23q-21 -6 -34 -12.5t-13 -15.5q0 -8 4.5 -15t13.5 -7q3 0 20 8.5t37 19.5t37.5 21t22.5 13q-2 -11 -7 -27.5t-10.5 -34t-9.5 -34t-4 -25.5q0 -17 21 -17q8 0 12.5 5.5t4.5 12.5q0 27 2 58.5t4 60.5q6 -5 20 -20t29 -30.5t28.5 -28
t19.5 -12.5q11 0 15 7.5t4 18.5q0 5 -14.5 15t-33 21l-37 22t-26.5 18z" />
    <glyph glyph-name="plus" unicode="+" horiz-adv-x="600" 
d="M287 158h-132v-26h132v-132h26v132h132v26h-132v132h-26v-132z" />
    <glyph glyph-name="comma" unicode="," horiz-adv-x="222" 
d="M79 -4q0 11 -3 23.5t-9 23t-15.5 17t-22.5 6.5q-16 0 -24.5 -10.5t-8.5 -25.5t11.5 -22.5t23.5 -7.5q11 0 16.5 -5.5t5.5 -22.5q0 -20 -12 -40.5t-26 -39t-26 -32.5t-12 -19q0 -4 3 -5.5t6 -1.5q5 0 20.5 15.5t31.5 39.5t28.5 52.5t12.5 54.5z" />
    <glyph glyph-name="hyphen" unicode="-" 
d="M87 124h33t37 0.5t32 1t18 1.5q12 2 20 11.5t13.5 20.5t8 21.5t2.5 15.5q0 11 -6 11q-3 0 -5.5 -5.5t-6 -12t-9 -12.5t-14.5 -7q-6 -1 -24 -1.5t-38 -1t-38 -1t-22 -0.5q-13 0 -22.5 -10t-15.5 -23t-8.5 -27t-2.5 -21q0 -3 2.5 -3.5t3.5 -0.5q3 0 5.5 6.5t7 15t11 15
t18.5 6.5z" />
    <glyph glyph-name="period" unicode="." horiz-adv-x="222" 
d="M29 66q-13 0 -23 -8t-10 -25t10 -25t23 -8t23 8t10 25t-10 25t-23 8z" />
    <glyph glyph-name="slash" unicode="/" horiz-adv-x="278" 
d="M-13 0h27l276 616h-27z" />
    <glyph glyph-name="zero" unicode="0" 
d="M245 408q-32 0 -63.5 -15t-60 -40t-52.5 -57t-42 -66t-28 -68t-10 -62q0 -18 5 -36t15 -32t25.5 -23t35.5 -9q32 0 63.5 15t60 40t52.5 57t42 66t28 68t10 62q0 18 -5 36t-15 32t-25.5 23t-35.5 9zM255 390q45 0 45 -54q0 -21 -12.5 -52.5t-32.5 -67t-45.5 -71t-52 -63.5
t-52 -46t-45.5 -18q-45 0 -45 54q0 21 12.5 52.5t32.5 67t45.5 71t52 63.5t52 46t45.5 18z" />
    <glyph glyph-name="one" unicode="1" 
d="M74 4q11 0 20.5 -2t20.5 -2q17 0 34.5 4t17.5 19q0 6 -5 6q-8 0 -13 -5.5t-16 -5.5q-10 0 -14 4.5t-4 9.5q0 6 7.5 26.5t20 49.5t28.5 64.5t32.5 72.5t32.5 72.5t29 64.5l6 14t3 13q0 5 -4 5q-2 0 -18 -5.5t-35 -13t-34.5 -14t-15.5 -9.5q0 -7 6 -7q4 0 14.5 2t30.5 2
q0 -4 -1 -7.5t-4 -10.5t-8.5 -19t-14.5 -32l-87 -194q-3 -7 -9.5 -21.5t-14.5 -29.5t-18 -26t-20 -11q-12 0 -16.5 -2.5t-4.5 -7.5t5 -6.5t10 -1.5q8 0 18.5 2t20.5 2z" />
    <glyph glyph-name="two" unicode="2" 
d="M10 34q12 21 37.5 43t57 44.5t64.5 45.5t60.5 47.5t45 49t17.5 50.5q0 22 -10 39.5t-25.5 29.5t-35.5 18.5t-40 6.5q-22 0 -42 -5t-35.5 -16t-24.5 -28.5t-9 -42.5q0 -12 4 -24t11 -12q3 0 3 12q0 18 4 36t13.5 31.5t25 22t37.5 8.5q31 0 49.5 -14.5t18.5 -46.5
q0 -27 -16 -57t-39 -58.5t-49 -52t-46 -36.5q-14 -10 -33.5 -27t-37.5 -35.5t-30.5 -34.5t-12.5 -23q0 -5 7 -5q11 0 24.5 5t42.5 5q12 0 21.5 -1.5t23 -3.5t33 -3.5t50.5 -1.5q13 0 26.5 6t25 14.5t19 17t7.5 13.5q0 6 -3 6q-2 0 -9 -3.5t-17.5 -7t-24 -7t-29.5 -3.5
q-23 0 -43 6t-43 6q-20 0 -38.5 -5t-32.5 -11z" />
    <glyph glyph-name="three" unicode="3" 
d="M231 186q0 -28 -9 -57.5t-26.5 -54t-42.5 -40.5t-57 -16q-24 -2 -40.5 4.5t-27 18t-16 26.5t-7.5 32q-1 7 -7 9t-11 2q-12 0 -16 -2.5t-4 -7.5q0 -8 9 -24.5t18 -27.5q13 -16 25 -25.5t25.5 -14.5t30 -6.5t40.5 -1.5q31 0 60.5 11.5t52.5 31.5t37 47.5t14 59.5
q0 30 -13.5 56.5t-36.5 45.5l2 4q28 3 49 24t21 50q0 20 -10 35t-25 24.5t-33.5 14t-35.5 4.5q-24 0 -46 -9t-39 -24t-27 -36t-10 -45q0 -5 2 -13t7 -8t7 5t2 10q0 7 8.5 24t23 34.5t33.5 30.5t40 13q23 0 39 -13.5t16 -36.5q0 -38 -30 -60q-10 -8 -19.5 -11t-17 -5
t-12 -3.5t-4.5 -5.5q0 -7 5 -7q2 0 6.5 1t9.5 1q12 0 20 -6t12.5 -15t6 -20.5t1.5 -22.5z" />
    <glyph glyph-name="four" unicode="4" 
d="M316 408q-19 0 -43.5 -14t-49 -33.5t-46 -41t-34.5 -36.5q-26 -32 -57.5 -59.5t-58.5 -50.5t-45.5 -39.5t-18.5 -25.5q0 -5 2.5 -5.5t6.5 -0.5l20 8t21 4q38 0 62 -1.5t38 -4.5t19.5 -8t5.5 -12q0 -11 -5 -23t-13 -22.5t-17.5 -17.5t-17.5 -7q-3 0 -8.5 -4.5t-5.5 -7.5
q0 -5 3 -5.5t6 -0.5q11 0 22 1.5t22 1.5q6 0 18 -1.5t26 -1.5t25 5t11 15q0 9 -3 9q-5 0 -12.5 -5.5t-16.5 -5.5q-3 0 -7.5 0.5t-4.5 3.5q0 6 4.5 22t9.5 28q8 16 17 19t25 3q13 0 27 3t25 8t18.5 10.5t7.5 11.5q0 4 -8 4q-10 0 -22 -5.5t-32 -5.5q-8 0 -16.5 1.5t-8.5 9.5
q0 3 1.5 6.5t3.5 7.5q3 7 13 28t22.5 49t26.5 59t25.5 57t19 43.5t7.5 19.5q0 4 -3.5 5.5t-6.5 1.5zM254 362q6 0 11 -1.5t5 -6.5q0 -1 -8 -18t-20 -43.5t-26.5 -58t-27.5 -61.5q-6 -14 -13 -28t-24 -14q-5 0 -11 1t-15 1.5t-22.5 1.5t-33.5 1q-2 0 -9 -0.5t-15.5 -1.5
t-17.5 -2.5l-15 -2.5l-2 8q4 4 16.5 13t31 24t41.5 37t49 53q35 42 64 70t42 28z" />
    <glyph glyph-name="five" unicode="5" 
d="M177 400q-2 0 -7 -6t-11 -14.5t-11.5 -17.5t-8.5 -15q-14 -29 -25 -44.5t-11 -17.5q0 -6 3 -6q4 0 19 1.5t31 1.5q34 0 56 -12t22 -49q0 -29 -17.5 -64.5t-44.5 -66.5t-59.5 -51.5t-62.5 -20.5q-27 0 -41 9t-14 37q0 10 3 17t3 18q0 7 -12 7q-7 0 -19.5 -2.5t-12.5 -15.5
q0 -22 12.5 -43.5t31.5 -32.5q11 -6 24 -9t46 -3q34 0 70.5 16.5t66.5 43.5t49 61.5t19 70.5q0 25 -10 45t-26.5 34t-38.5 21.5t-47 7.5q-13 0 -16.5 1t-3.5 3t4.5 8.5t9.5 17.5q6 16 15.5 19t26.5 3q23 0 50.5 0.5t47.5 2.5q7 1 17 4t19 8t15.5 11.5t6.5 15.5q0 6 -13 6
h-156z" />
    <glyph glyph-name="six" unicode="6" 
d="M55 61q0 45 21.5 94t55 94t73.5 82.5t78 60.5q15 8 15 13q0 3 -8 3t-22.5 -6.5t-30 -15t-29 -17.5t-19.5 -14q-29 -21 -60.5 -47.5t-58 -58t-44 -67t-17.5 -74.5q0 -48 23.5 -78t73.5 -30q33 0 64.5 17t55.5 43.5t39 59t15 64.5q0 31 -13.5 53.5t-48.5 22.5
q-14 0 -30 -6.5t-30.5 -16t-24 -20t-9.5 -19.5q0 -6 6 -6q3 0 11 8t19 17t24.5 17t27.5 8q11 0 21.5 -6t10.5 -18q0 -20 -16.5 -53.5t-40.5 -66t-50.5 -56.5t-47.5 -24q-23 0 -28.5 11.5t-5.5 31.5z" />
    <glyph glyph-name="seven" unicode="7" 
d="M355 410q-23 -7 -45 -8.5t-44 -1.5q-16 0 -32.5 1t-32.5 5q-35 8 -59 8q-7 0 -14 -1t-13 -5q-1 -1 -9 -12.5t-17 -25.5t-16 -26.5t-7 -14.5q0 -9 5 -9q3 0 6.5 5t8 11.5t10 12.5t13.5 9q16 6 41.5 9t53.5 4.5t55.5 2.5t47.5 4v-4q-57 -57 -105 -116.5t-95 -126.5
q-14 -20 -27.5 -40t-25.5 -36.5t-22.5 -26.5t-17.5 -10q-3 0 -7 -3t-4 -6q0 -6 4.5 -7.5t11.5 -1.5q10 0 20 2t21 2q17 0 28 -2t31 -2q16 0 26.5 4.5t17.5 10.5t10 12t3 9q0 6 -6 6q-2 0 -5.5 -4t-8.5 -8.5t-11 -8t-12 -3.5q-15 0 -15 14q0 15 14 44t36.5 65t49.5 75.5
t53.5 75t48.5 63.5t35 41v14z" />
    <glyph glyph-name="eight" unicode="8" 
d="M-11 79q0 -19 7.5 -33.5t20.5 -24.5t29 -15.5t34 -5.5q28 0 60 8t58.5 24.5t44 41.5t17.5 59q0 31 -13.5 62.5t-26.5 58.5q15 5 34.5 14t37 21.5t30 28t12.5 33.5q0 30 -22 43.5t-49 13.5q-49 0 -80.5 -24.5t-31.5 -78.5q0 -15 4 -30.5t9 -29.5q-27 -11 -57.5 -25.5
t-56.5 -34.5t-43.5 -46t-17.5 -60zM25 73q0 30 13 55t34 45t47 34.5t51 23.5q11 -23 22.5 -51.5t11.5 -54.5t-9.5 -45.5t-26 -33.5t-38.5 -21t-46 -7q-59 0 -59 55zM306 359q0 -18 -10 -32.5t-24 -26.5t-30.5 -20.5t-28.5 -12.5q-8 17 -14 30.5t-6 33.5q0 27 22.5 43
t47.5 16q17 0 30 -6.5t13 -24.5z" />
    <glyph glyph-name="nine" unicode="9" 
d="M272 350q0 -23 -6.5 -47t-17.5 -48q-12 -27 -33.5 -67t-49 -78t-59.5 -65t-66 -27q-18 0 -30 2t-19 5t-11.5 5t-7.5 2q-7 0 -7 -6q0 -5 7 -9l14 -8q11 -6 25 -7.5t28 -1.5q64 0 108 31q37 26 67 61.5t51.5 74.5t33 77t11.5 70q0 27 -7.5 45.5t-19.5 29t-27.5 15
t-30.5 4.5q-30 0 -62.5 -18t-58.5 -47.5t-43 -67t-17 -75.5q0 -34 19.5 -54.5t55.5 -20.5q9 0 22 4.5t24 11t19 13t8 10.5q0 9 -8 9q-6 0 -12.5 -4.5t-14.5 -10.5t-17.5 -10.5t-20.5 -4.5q-15 0 -26 5t-11 22q0 23 14.5 60.5t37 73t50 61t53.5 25.5q21 0 28 -10t7 -30z" />
    <glyph glyph-name="colon" unicode=":" horiz-adv-x="222" 
d="M29 66q-13 0 -23 -8t-10 -25t10 -25t23 -8t23 8t10 25t-10 25t-23 8zM139 284q-13 0 -23 -8t-10 -25t10 -25t23 -8t23 8t10 25t-10 25t-23 8z" />
    <glyph glyph-name="semicolon" unicode=";" horiz-adv-x="222" 
d="M79 -4q0 11 -3 23.5t-9 23t-15.5 17t-22.5 6.5q-16 0 -24.5 -10.5t-8.5 -25.5t11.5 -22.5t23.5 -7.5q11 0 16.5 -5.5t5.5 -22.5q0 -20 -12 -40.5t-26 -39t-26 -32.5t-12 -19q0 -4 3 -5.5t6 -1.5q5 0 20.5 15.5t31.5 39.5t28.5 52.5t12.5 54.5zM139 284q-13 0 -23 -8
t-10 -25t10 -25t23 -8t23 8t10 25t-10 25t-23 8z" />
    <glyph glyph-name="less" unicode="&#x3c;" horiz-adv-x="600" 
d="M445 27l-254 118l254 118v32l-290 -135v-30l290 -135v32z" />
    <glyph glyph-name="equal" unicode="=" horiz-adv-x="600" 
d="M445 214h-290v-26h290v26zM445 102h-290v-26h290v26z" />
    <glyph glyph-name="greater" unicode="&#x3e;" horiz-adv-x="600" 
d="M155 27v-32l290 134v31l-290 135v-32l254 -118z" />
    <glyph glyph-name="question" unicode="?" 
d="M113 391q0 -17 11.5 -28.5t28.5 -11.5q18 0 30.5 13.5t12.5 20.5q0 5 -5 5q-4 0 -13.5 -8.5t-25.5 -8.5q-13 0 -13 20q0 15 12.5 32t30 31.5t36.5 24t32 9.5q11 0 19 -7.5t8 -20.5q0 -19 -14.5 -44.5t-36.5 -53.5t-48 -58t-48 -58.5t-36.5 -53.5t-14.5 -44t8 -34t37 -15
q19 0 32.5 13t13.5 30q0 3 -0.5 6.5t-5.5 3.5q-6 0 -9 -5.5t-6 -12t-9 -12t-18 -5.5q-14 0 -19.5 9.5t-5.5 20.5q0 18 17 39t42 44.5t55 49t55 52.5t42 55.5t17 57.5q0 34 -23 47.5t-53 13.5q-23 0 -47.5 -9t-44 -24.5t-32 -37t-12.5 -46.5zM46 66q-13 0 -23 -8t-10 -25
t10 -25t23 -8t23 8t10 25t-10 25t-23 8z" />
    <glyph glyph-name="at" unicode="@" horiz-adv-x="800" 
d="M331 249q0 43 14 77t34 57.5t42.5 35.5t39.5 12q40 0 40 -58q0 -40 -12 -76t-28.5 -63.5t-35.5 -43.5t-32 -16q-26 0 -44 16.5t-18 58.5zM514 417q-5 9 -9.5 17.5t-11.5 15t-17.5 11t-26.5 4.5q-45 0 -78 -25t-55 -59.5t-32.5 -70.5t-10.5 -58q0 -40 10.5 -62.5
t24.5 -33.5t28.5 -13.5t22.5 -2.5q16 0 32.5 7.5t30.5 18t25 21t15 16.5h2q0 -4 4 -14.5t13.5 -21t24.5 -19t38 -8.5q40 0 71 20.5t52 52t32 69t11 71.5q0 49 -22.5 96.5t-62.5 84.5t-93.5 59.5t-115.5 22.5q-66 0 -125 -23t-104 -65.5t-71 -102t-26 -131.5
q0 -45 19.5 -96.5t60.5 -95.5t104.5 -73t150.5 -29q53 0 99 15.5t89 33.5l-12 19q-38 -17 -77.5 -29.5t-98.5 -12.5q-64 0 -114 22.5t-84.5 60t-52.5 86t-18 99.5q0 71 19.5 127.5t54 95.5t82.5 60t104 21q64 0 114 -24t84.5 -60t52 -79.5t17.5 -82.5q0 -30 -8 -62.5
t-24 -60t-40 -45.5t-55 -18q-20 0 -28 11t-8 19v14t2 11l60 232h-60z" />
    <glyph glyph-name="A" unicode="A" horiz-adv-x="722" 
d="M779 588q-25 -4 -47 -10.5t-44 -18.5q-49 -27 -93 -70.5t-84 -93.5t-75.5 -103t-67.5 -99q-18 -26 -41 -56.5t-50.5 -57t-59 -44t-66.5 -17.5q-16 0 -27 2.5t-19 4.5q-33 10 -49 26.5t-22.5 32.5t-8 28t-6.5 12t-5.5 -2.5t-0.5 -7.5q0 -17 10.5 -39.5t22.5 -35.5
q27 -26 53.5 -32.5t61.5 -6.5q45 0 85.5 20t75.5 50t64.5 65.5t51.5 67.5q3 5 8 12.5t10.5 14t11.5 11.5t12 5q29 0 55 -4t45 -6l10 -2.5t6 -6.5q0 -6 -3 -14.5t-5 -12.5q-3 -13 -15 -39t-27.5 -54t-32 -54t-29.5 -39q-3 -3 -3 -7q0 -5 8 -5q3 0 10 2.5t24 2.5q18 0 29 -3.5
t31 -3.5q8 0 15 0.5t13 3.5q11 6 19 14t8 10q0 6 -5 6q-2 0 -12.5 -8t-21.5 -8q-23 0 -23 24q0 4 3.5 12.5t7.5 19.5q1 4 7.5 15.5t18 38t28 71t37.5 116.5q7 24 18 62t25 77t30 73.5t34 52.5zM670 588q-30 -11 -62 -17t-65 -6q-32 0 -60.5 5t-56.5 11t-55 10.5t-54 4.5
q-39 0 -81.5 -13.5t-78 -39t-58 -61.5t-22.5 -80q0 -13 3 -26.5t7.5 -24t10 -17.5t9.5 -7t4 2q0 4 -8 21t-8 45q0 37 15 67t40.5 51t57.5 32t67 11q25 0 50 -5t51 -11t51.5 -10.5t50.5 -4.5q26 0 50 3q25 3 49 10t44 15t34 16.5t19 14.5zM633 340q-5 -14 -9.5 -28t-9.5 -28
q-5 -13 -8.5 -21.5t-20.5 -8.5q-5 0 -11.5 1.5t-16.5 3.5t-22 3.5t-27 1.5q-9 0 -15.5 0.5t-6.5 2.5q0 5 4 13q5 10 14 25.5t24.5 40t41 59.5t63.5 84q10 12 24 26t30 26t34 20t35 9q-6 -7 -13.5 -14.5t-15.5 -18.5q-37 -51 -58.5 -101.5t-35.5 -95.5z" />
    <glyph glyph-name="B" unicode="B" horiz-adv-x="778" 
d="M377 588q-42 0 -84 -13.5t-75 -39t-54 -62t-21 -82.5q0 -4 1 -14t3.5 -20.5t5.5 -19t8 -8.5q2 0 4 1t2 3q0 3 -3 19.5t-3 41.5q0 42 16.5 71.5t43 47.5t61 26.5t70.5 8.5q23 0 48.5 -4t51.5 -9q27 -5 53.5 -7.5t51.5 -2.5q39 0 67 7.5t48 17.5q21 10 36 15t27 5
q11 0 14.5 -6t3.5 -17q0 -20 -8 -41.5t-21.5 -41.5t-30 -37t-32.5 -27q-9 -5 -21 -9.5t-23.5 -9.5t-19.5 -11t-8 -14q0 -7 11.5 -17.5t25.5 -27.5t25.5 -43t11.5 -64q0 -31 -13 -64t-34.5 -60t-51 -44.5t-62.5 -17.5q-31 0 -52.5 12t-35.5 26t-21.5 26t-8.5 12q-7 0 -7 -10
q0 -6 8 -20t25.5 -28t44.5 -25t66 -11q43 0 78.5 15t61 41t40 62t14.5 78q0 35 -17 62.5t-37 47.5t-37 32.5t-17 17.5q0 10 18 13q31 4 61 13.5t52.5 26.5t36.5 42.5t14 62.5q0 13 -2.5 26t-8.5 23.5t-16 17.5t-25 7t-26.5 -5t-24.5 -10q-12 -5 -29 -9.5t-43 -4.5
q-30 0 -59.5 4.5t-58.5 9.5q-30 5 -59.5 10t-59.5 5zM414 209q24 53 42 89.5t31.5 60.5t22.5 39t15 26q8 15 19 27t20.5 20.5t16.5 14t7 6.5q0 3 -5 3q-7 0 -27.5 -12t-47.5 -37.5t-57.5 -66t-58.5 -97.5q-20 -41 -45 -87.5t-55.5 -85.5t-67 -65t-78.5 -26t-76.5 18
t-44.5 47q-4 12 -5.5 16t-4.5 4q-4 0 -4 -6q0 -11 8 -27.5t26 -32t46.5 -26.5t69.5 -11q36 0 72 15t69 42t61.5 65.5t50.5 86.5z" />
    <glyph glyph-name="C" unicode="C" horiz-adv-x="611" 
d="M62 232q0 -54 19.5 -97t53 -73t79 -46t97.5 -16q48 0 94 15.5t82.5 43.5t59 68t22.5 90q0 13 -3.5 28t-9 28t-11.5 21t-10 8q-5 0 -5 -8q0 -12 3.5 -29t3.5 -29q0 -44 -16 -83.5t-44.5 -69.5t-67.5 -47.5t-85 -17.5q-50 0 -88 16.5t-63.5 45.5t-38 68.5t-12.5 86.5
q0 52 22.5 110.5t61 108.5t89.5 83t108 33q11 0 25.5 -1.5t28.5 -3t26 -2.5t19 -1q12 0 25.5 2t22.5 2q20 0 28.5 -15t8.5 -47q0 -10 -3 -21t-8.5 -20t-14 -15t-20.5 -6q-11 0 -18 3.5t-12 8t-8 8t-5 3.5q-4 0 -4 -6q0 -10 16.5 -22.5t44.5 -12.5q18 0 33 9t26.5 23.5
t18 31.5t6.5 34q0 9 -2.5 20.5t-7 21.5t-12.5 17t-18 7q-12 0 -38 -4t-61 -4q-31 0 -59 4t-41 4q-39 0 -76.5 -11t-71.5 -31t-63.5 -47.5t-51.5 -59.5q-34 -50 -54.5 -97.5t-20.5 -109.5z" />
    <glyph glyph-name="D" unicode="D" horiz-adv-x="667" 
d="M316 251q6 17 12.5 35.5t16.5 41t24.5 52t36.5 69.5q21 38 37.5 54.5t16.5 18.5q0 5 -4 5q-7 0 -18 -6.5t-17 -11.5q-44 -33 -73.5 -77.5t-50.5 -90.5t-37 -87.5t-32 -68.5q-6 -11 -14.5 -25.5t-18 -29t-19 -27t-17.5 -19.5q-5 -4 -8.5 -6.5t-3.5 -4.5q0 -5 8 -5
q15 0 31.5 10t33 26t32 36t28.5 40.5t22.5 39t13.5 31.5zM644 313q0 64 -27.5 116.5t-72.5 89.5t-102.5 57t-117.5 20q-47 0 -95.5 -12.5t-87.5 -38t-64 -64.5t-25 -93q0 -5 1.5 -15.5t4.5 -20.5t7.5 -17.5t10.5 -7.5q5 0 5 5q0 4 -1.5 7.5t-4 10t-4 17.5t-1.5 30
q0 49 25 83t62.5 56t82.5 32t86 10q60 0 108 -17t82.5 -49t53 -79.5t18.5 -107.5q0 -62 -25.5 -117.5t-68.5 -97.5t-99.5 -67t-118.5 -25q-23 0 -52.5 4.5t-50.5 12.5q-30 11 -57 30.5t-52 39.5q-7 0 -7 -5t4 -9l7 -7q45 -45 101.5 -64.5t124.5 -19.5q65 0 128 23t112.5 64
t79.5 99t30 127z" />
    <glyph glyph-name="E" unicode="E" horiz-adv-x="556" 
d="M436 428q33 0 53 19.5t20 51.5q0 26 -17 43t-42 27.5t-52 14.5t-47 4q-27 0 -57 -5t-55.5 -18t-42.5 -34t-17 -54q0 -24 14.5 -38.5t32 -23.5t32 -14t14.5 -11q0 -7 -7 -9.5t-34 -5.5q-29 -3 -63.5 -17t-64.5 -38t-50 -59t-20 -81q0 -43 20.5 -76.5t53 -56.5t73.5 -35
t82 -12q56 0 107 17t89.5 47.5t61 72.5t22.5 93q0 5 -1.5 14t-4 18t-5.5 15.5t-6 6.5t-6.5 -3t-3.5 -7t4.5 -14.5t4.5 -26.5q0 -48 -22 -87.5t-57.5 -68t-80 -44t-89.5 -15.5q-41 0 -75.5 9.5t-59 30t-38 51.5t-13.5 74q0 25 9 50.5t26 48t42 41t57 30.5q13 5 25 7.5
t21.5 5.5t15 7t5.5 12q0 11 -9 19t-20.5 17t-20.5 20.5t-9 29.5q0 28 15 47t37.5 30.5t48.5 16.5t49 5q12 0 28 -3.5t30.5 -10.5t24 -18t9.5 -26q0 -20 -10.5 -37t-33.5 -17q-15 0 -25.5 5t-17 11t-10 11t-4.5 5q-4 0 -4 -5q0 -6 5 -16t14 -19t21.5 -15.5t27.5 -6.5z" />
    <glyph glyph-name="F" unicode="F" horiz-adv-x="611" 
d="M331 596q-39 0 -74.5 -14t-63.5 -38.5t-44.5 -58.5t-16.5 -74q0 -21 5.5 -38.5t13 -30.5t15.5 -20t13 -7t5 5q0 1 -5.5 7.5t-11.5 17.5t-11.5 27t-5.5 37q0 66 39.5 106.5t105.5 40.5q28 0 55 -5t56 -12t58 -12t59 -5q31 0 56.5 4t46 9t35 10t25.5 7q-1 -2 -3 -5
t-6.5 -7.5l-12.5 -12.5t-21 -20q-43 -42 -81.5 -100.5t-74.5 -128.5q-9 -4 -30 -16t-42.5 -26t-38 -27t-16.5 -18q0 -6 5 -6q2 0 15.5 9.5t30 20.5t32 20.5t21.5 9.5t6 -6q0 -1 -7 -17.5t-22 -41t-36.5 -53t-51.5 -53t-67 -40.5t-82 -16t-75 14t-51 40q-10 12 -17 25.5
t-12 13.5q-3 0 -3.5 -1.5l-0.5 -1.5q0 -17 13.5 -37t32.5 -36q26 -22 54 -28.5t63 -6.5q64 0 114.5 18t90.5 53t71.5 86t58.5 116q5 3 15 8.5t23 5.5q9 0 16 -3.5t14 -8t15 -8t19 -3.5t21 8t10 21q0 19 -15.5 25t-27.5 6q-11 0 -31.5 -4t-36.5 -11q2 16 16.5 47t34 65
t39.5 64.5t33 46.5q1 1 6 6.5t10.5 12t10 12t4.5 7.5q0 6 -6 6q-3 0 -11 -3t-23 -7t-37 -7t-53 -3q-36 0 -70 6t-66 14t-62.5 14t-59.5 6z" />
    <glyph glyph-name="G" unicode="G" horiz-adv-x="611" 
d="M516 239q-9 -21 -24 -43.5t-32.5 -43.5t-37 -39.5t-38.5 -31.5q-38 -26 -85.5 -44.5t-95.5 -18.5q-22 0 -46 3q-33 5 -56 19.5t-37.5 29.5t-21.5 27t-9 12q-3 0 -3 -6q0 -8 6 -18t15 -19.5t18.5 -18.5t16.5 -13q19 -11 35.5 -18t31.5 -10.5t30.5 -4.5t34.5 -1
q106 0 191.5 49.5t148.5 150.5q5 8 12.5 21.5t14.5 27.5t12 26.5t5 17.5q0 9 -3 9q-5 0 -27 -12t-55 -26t-75 -26t-86 -12q-42 0 -79 9.5t-64.5 29t-43.5 48.5t-16 67q0 20 10.5 41t27 40t37 35t40.5 26q30 15 76 25.5t92 10.5q18 0 52.5 -3t69 -11t60 -24t25.5 -41
q0 -23 -10 -41.5t-37 -18.5q-12 0 -21 3.5t-15 7.5t-9.5 7.5t-4.5 3.5q-3 0 -3 -6q0 -10 7 -20t17.5 -18t23.5 -13t24 -5q30 0 50 18t20 53q0 22 -13 44.5t-43.5 40.5t-79.5 29.5t-121 11.5q-28 0 -63.5 -3.5t-72.5 -12.5t-72 -23.5t-62.5 -35.5t-44 -49.5t-16.5 -66.5
q0 -42 24 -74.5t59.5 -55.5t77.5 -35t78 -12q30 0 51 2t39.5 6t38.5 10.5t49 15.5z" />
    <glyph glyph-name="H" unicode="H" horiz-adv-x="778" 
d="M556 550q-48 -48 -82.5 -102.5t-60.5 -112.5q-5 -1 -16.5 -3.5t-23 -6t-20 -8t-8.5 -8.5q0 -7 7 -7t20 5.5t27 5.5q4 0 4 -6q0 -4 -10 -25t-26 -49.5t-35 -59.5t-38 -55q-11 -14 -29 -31.5t-41 -32.5t-50.5 -25.5t-58.5 -10.5q-33 0 -54 11.5t-33.5 26t-18.5 26t-8 11.5
q-3 0 -3 -9q0 -14 13.5 -32t24.5 -27q22 -17 44.5 -21t52.5 -4q33 0 64.5 10.5t60.5 28t54.5 40t45.5 47.5q31 38 56 85t51 107q5 -1 9.5 -1.5t9.5 -0.5q17 0 37.5 -4.5t42.5 -9.5q23 -5 45 -10t41 -7q-4 -9 -9 -22t-15 -36t-27 -59.5t-45 -92.5q-10 -20 -22 -32.5
t-22.5 -19.5t-17.5 -10t-7 -6q0 -7 3 -7q2 0 9 2t16 4.5t18 4.5t14 2q9 0 16 -2t15 -4.5t19 -4.5t30 -2q20 0 35.5 3t15.5 9q0 2 -0.5 4.5t-3.5 2.5q-4 0 -10 -0.5t-21 -0.5q-13 0 -23 5t-10 16q0 7 7 26.5t17 43t20.5 47t16.5 40.5q2 5 7 18.5t11 28t12 26t10 11.5
q5 0 14.5 1t18.5 3t16 4.5t7 6.5q0 8 -6 8t-18 -2.5t-19 -2.5q-8 0 -8 3q0 1 2 8t5.5 16t7 18.5t6.5 16.5q9 21 22 55t30 66.5t39 55.5t51 23t45 -11t19 -11q7 0 7 6q0 3 -7.5 8.5t-19 11.5t-25.5 10t-28 4q-29 0 -53.5 -14.5t-44.5 -37.5t-36.5 -53t-30 -60t-24 -58.5
t-19.5 -49.5q-2 0 -4.5 -1t-6.5 -1q-7 0 -18.5 2.5t-23 5.5t-22 5.5t-14.5 2.5q-3 0 -12.5 2t-23 5t-30 5.5t-33.5 2.5q3 17 14 42.5t24 52t26 51t22 38.5q4 7 9.5 15.5t11 16.5t9 14t3.5 8q0 4 -3.5 5t-5.5 1q-4 0 -15 -1.5t-23 -3.5t-23 -3.5t-15 -1.5q-25 0 -49.5 6
t-48.5 12l-48 12t-49 6q-20 0 -38.5 -9.5t-33 -22.5t-23 -27.5t-8.5 -23.5q0 -6 3 -6q2 0 8 7.5t15.5 17t23.5 17t33 7.5q11 0 29 -4.5t40 -9.5t45.5 -9.5t46.5 -4.5q21 0 35 1.5t24.5 4t20 5t21.5 4.5z" />
    <glyph glyph-name="I" unicode="I" horiz-adv-x="500" 
d="M606 552q-39 -38 -62 -68.5t-42 -59.5q-22 -34 -44 -77t-46.5 -88t-52 -88.5t-60.5 -77t-72 -54.5t-86 -21q-39 0 -61.5 11t-35.5 24.5t-18.5 24.5t-10.5 11q-3 0 -4.5 -1t-1.5 -7q0 -9 9 -22.5t25.5 -26.5t39 -22.5t50.5 -9.5q51 0 92.5 12.5t76 34.5t62 52t51.5 64
q34 48 58 102t47.5 107t49.5 102t65 88q6 6 10 9t4 8q0 3 -5 3q-4 0 -20 -3t-30 -3q-30 0 -71 6t-77 6q-54 0 -100.5 -13t-91.5 -48q-14 -11 -28.5 -28.5t-27.5 -40t-21 -49t-8 -54.5q0 -24 6.5 -49t19.5 -45.5t31.5 -33.5t42.5 -13q9 0 18 1.5t9 7.5q0 11 -5 11
q-4 0 -8.5 -1t-7.5 -1q-20 0 -36.5 10t-28 26.5t-17.5 38.5t-6 47q0 45 20.5 80t53 58.5t73 35.5t80.5 12q62 0 107 3.5t84 10.5z" />
    <glyph glyph-name="J" unicode="J" horiz-adv-x="444" 
d="M416 293q2 9 11 31t23 51t32 63t39 67.5t42.5 63.5t43.5 52q2 2 5.5 7.5t3.5 8.5q0 5 -13 5q-5 0 -19.5 -5.5t-35.5 -12t-45.5 -13t-49.5 -8.5q-29 -3 -64.5 -6.5t-72.5 -11t-72.5 -20t-63 -32.5t-44 -48.5t-16.5 -67.5q0 -40 21 -69t53.5 -48.5t71.5 -29t75 -10.5
q0 -3 -4.5 -14t-10 -23.5t-11.5 -22.5t-9 -11q-30 -7 -66 -20t-72.5 -29.5t-71.5 -37t-62 -43.5t-43.5 -47t-16.5 -49q0 -35 25 -49t56 -14q46 0 89 24.5t79 59.5t64 74t45 68q14 24 23.5 42t17.5 18q12 0 21.5 1.5t9.5 6.5q0 6 -5 8t-8 2t-7.5 -1t-9.5 -2q3 5 8 17l10 24
t9.5 21t6.5 9q4 0 22 5t38.5 12t37 14t16.5 10q0 11 -4 11q-3 0 -13 -4t-23.5 -9.5t-30 -11.5t-32.5 -9zM299 169q-4 -15 -14.5 -39t-26 -52t-36 -56.5t-44 -51.5t-50.5 -37.5t-56 -14.5q-22 0 -39 15t-17 40q0 21 15 42.5t39.5 42t55 38.5t61.5 33t60 26t50 16zM592 622
q-57 -57 -107.5 -121.5t-90.5 -139.5q-12 -23 -20.5 -39t-14 -26t-9.5 -14t-8 -4q-30 0 -59.5 9.5t-53.5 27.5t-38.5 44.5t-14.5 60.5q0 51 30.5 88t79.5 52q27 8 65.5 12.5t80.5 10.5t83.5 15t74.5 26z" />
    <glyph glyph-name="K" unicode="K" horiz-adv-x="778" 
d="M602 596q-22 -14 -49.5 -19t-53.5 -5q-22 0 -45.5 4.5t-46.5 9.5t-45.5 7.5t-43.5 2.5q-28 0 -54 -9.5t-46.5 -26.5t-33 -40.5t-12.5 -52.5q0 -9 2.5 -20t6.5 -21t8.5 -16.5t8.5 -6.5q6 0 6 5q0 4 -7 17t-7 39q0 43 21.5 65.5t74.5 22.5q16 0 33.5 -2.5t37.5 -5.5
t43.5 -5.5t50.5 -2.5q30 0 59 9t58 19l2 -2q-31 -35 -59 -76t-50.5 -81t-39.5 -75.5t-27 -59.5q-21 -52 -51.5 -97.5t-66.5 -80t-74.5 -54.5t-73.5 -20t-57 13t-35.5 29t-21 29t-12.5 13q-3 0 -3 -8q0 -6 7.5 -21.5t23 -31.5t38.5 -28.5t54 -12.5q47 0 87 15t74 39
t62.5 54.5t51.5 62.5q13 18 37 46.5t50.5 57.5t52.5 55.5t43 41.5l2 -2q-19 -64 -37.5 -130t-18.5 -135q0 -44 22.5 -74.5t71.5 -30.5q12 0 24 1.5t23 7.5q14 8 28 20t25 24.5t18 23t7 15.5q0 3 -5 3q-4 0 -13.5 -12t-24 -26.5t-31.5 -26.5t-36 -12t-30 7.5t-17 19.5t-8 27
t-2 29q0 25 5.5 57.5t13.5 68t18 70.5t19.5 65.5t17.5 54t12 34.5q22 20 47.5 42.5t53 41t55.5 31t55 12.5q26 0 40 -8t14 -29q0 -4 -2 -10.5t-2 -9.5q0 -6 6 -6q5 0 8.5 9t3.5 19q0 30 -16.5 41.5t-58.5 11.5q-36 0 -85 -31t-104 -79t-112.5 -107t-110.5 -115l-6 -2
q7 29 27.5 77t44.5 98t47 93.5t36 62.5z" />
    <glyph glyph-name="L" unicode="L" horiz-adv-x="611" 
d="M568 199q0 31 -10.5 55t-28 40t-40.5 24t-48 8q-9 0 -31.5 -5t-46.5 -16q-17 -8 -35.5 -24.5t-34 -35t-26 -36t-10.5 -27.5q0 -5 5 -5q2 0 6.5 5t10 12.5t11.5 16.5t11 16q3 4 13.5 17.5t28 27.5t42 25t56.5 11q24 0 44.5 -8t34.5 -21t22 -30t8 -35q0 -42 -15 -74.5
t-41.5 -54.5t-62 -33.5t-76.5 -11.5q-26 0 -51.5 6t-50.5 12t-49 11t-48 5q-34 0 -56.5 -9t-37.5 -19.5t-24.5 -19t-17.5 -8.5q-10 0 -10 5q0 10 16 21q44 31 72 67.5t58 80.5q16 23 31.5 52.5t31.5 62t33 66.5t36 66q38 64 88.5 105.5t118.5 41.5q24 0 46.5 -5.5t40 -17.5
t28 -31t10.5 -46q0 -24 -10.5 -42t-22.5 -30t-22.5 -19t-10.5 -8q0 -4 7 -4q8 0 21 8.5t25.5 23t21.5 32.5t9 37q0 31 -12.5 53.5t-32.5 37.5t-46 22t-54 7q-39 0 -73 -10.5t-64 -29t-56.5 -43.5t-48.5 -55q-41 -53 -67 -105t-48 -102t-46 -98.5t-60 -95.5
q-11 -14 -24.5 -22t-13.5 -21q0 -10 4.5 -16t16.5 -6q17 0 26 5.5t17 11.5q8 7 18 12t27 5q18 0 41 -5t46 -12q24 -7 51 -12t65 -5q22 0 36.5 0.5t26.5 2.5t24 5.5t27 9.5q31 11 58 29t47.5 41.5t32.5 51.5t12 59z" />
    <glyph glyph-name="M" unicode="M" horiz-adv-x="833" 
d="M470 496q0 6 -7 6q-6 0 -26.5 -7t-42.5 -16t-39.5 -17t-17.5 -10q0 -3 1 -6t3 -3q1 0 8.5 2.5l16.5 5.5l18 6t14 5q-3 -8 -7 -16.5t-10 -21.5t-15.5 -32l-23.5 -47q-22 -44 -48.5 -100.5t-60.5 -107t-76.5 -85t-96.5 -34.5q-14 0 -26.5 3.5t-22 8t-16.5 8t-9 3.5
q-3 0 -3 -6q0 -3 5.5 -9t16 -11.5t25.5 -10t34 -4.5q61 0 108 26t83 66.5t63.5 90.5t51.5 98q16 34 34 71t32.5 68.5t24 52.5t9.5 23zM647 91q0 64 22 126.5t59 131.5q7 13 18.5 34.5t23.5 41.5t21.5 35t12.5 15q16 0 46 3t60 11.5t52.5 24.5t22.5 43q0 20 -15.5 25.5
t-29.5 5.5q-21 0 -42.5 -11.5t-39.5 -25t-31 -24.5t-17 -11q-31 0 -82.5 12.5t-110 27.5t-118 27.5t-105.5 12.5q-44 0 -92 -11t-88.5 -35t-67 -61.5t-26.5 -89.5q0 -7 2 -21t6.5 -27.5t11 -24t14.5 -10.5q5 0 5 4q0 2 -3.5 7t-7 13.5t-7 21.5t-3.5 32q0 41 16 72t43 52
t62 31.5t73 10.5q24 0 65 -6t83 -14.5t77.5 -17.5t48.5 -14q7 -3 28 -7t46.5 -8.5t52 -8.5t46.5 -6q-29 -35 -61.5 -76.5t-59.5 -87.5t-45 -93t-18 -92q0 -23 4.5 -46t15.5 -41.5t30.5 -30t49.5 -11.5q20 0 38 9t32 20.5t22.5 21t8.5 10.5q0 8 -7 8q-3 0 -11.5 -8t-21 -17.5
t-28 -17.5t-30.5 -8t-25 6.5t-16 17t-8 23.5t-2 26zM434 41q0 10 15 45t37.5 82.5t48.5 101t48.5 99.5t37.5 78t15 38q0 4 -8.5 5.5t-14.5 1.5q-11 0 -20 -3.5t-16 -17.5q-62 -133 -102.5 -220.5t-67 -139t-44.5 -72.5t-35 -21q-5 0 -8.5 2t-6.5 2q-7 0 -7 -10
q0 -8 10.5 -10t18.5 -2t17 2t18 2q17 0 34.5 -2t37.5 -2q9 0 18 3t17 8.5t13 13t5 15.5q0 3 -1 5t-6 2q-2 0 -5 -4t-7 -8.5t-9.5 -8.5t-13.5 -4t-13.5 5t-5.5 14zM834 510q28 29 58 44.5t53 15.5q14 0 18 -4.5t4 -11.5q0 -12 -11 -21t-26 -15t-30.5 -8.5t-24.5 -2.5
q-11 0 -21 1z" />
    <glyph glyph-name="N" unicode="N" horiz-adv-x="778" 
d="M548 192q-11 23 -19 46t-14 42.5t-11.5 35t-9.5 24.5q-23 43 -40.5 88.5t-43 82.5t-64 61t-102.5 24q-35 0 -65 -15t-52.5 -40t-35.5 -56.5t-13 -64.5q0 -16 4.5 -33t11.5 -31t14 -23t12 -9q6 0 6 5q0 4 -4.5 11t-10.5 17.5t-10.5 25.5t-4.5 36q0 32 12 61t32.5 50.5
t48.5 34.5t61 13q34 0 64 -22.5t52.5 -55.5t35 -71t12.5 -68q0 -32 -8 -69.5t-23.5 -75.5t-37.5 -73.5t-50 -63.5t-61 -44.5t-70 -16.5q-28 0 -44.5 11t-16.5 31q0 5 -0.5 12t-0.5 11q0 5 -7 5q-6 0 -8 -9t-2 -15q0 -16 7 -28t18 -20t25 -12t28 -4q47 0 83.5 19t65 49
t49.5 67.5t35 75.5t22.5 72t13.5 57h2l13 -28q32 -86 53.5 -145t41.5 -96.5t43.5 -54t59.5 -16.5q24 0 42.5 9t31.5 21t19.5 24.5t6.5 20.5q0 5 -2 5.5t-4 0.5q-4 0 -10 -10t-15 -21.5t-22.5 -21.5t-32.5 -10q-28 0 -46 15.5t-28 39t-13.5 50t-3.5 47.5q0 44 11 91t30.5 91
t46 83.5t56.5 69t62.5 46.5t64.5 17q24 0 42.5 -7t32 -16t22 -16t10.5 -7q3 0 3 4q0 9 -10 21.5t-26.5 23t-38 18t-43.5 7.5q-38 0 -73 -18t-65 -46.5t-53 -63t-36 -66.5q-11 -26 -18.5 -49.5t-13 -47.5t-11 -51.5t-11.5 -61.5h-2z" />
    <glyph glyph-name="O" unicode="O" horiz-adv-x="556" 
d="M237 0q48 0 92 18.5t81 50t67 73t50.5 87t32 93t11.5 91.5q0 36 -9.5 72.5t-29.5 65.5t-52 47t-78 18q-50 0 -90.5 -24.5t-70.5 -62.5q-5 -6 -12 -17t-14 -23.5t-12 -24t-5 -17.5q0 -2 0.5 -6.5t3.5 -4.5q5 0 8 5.5t6.5 14.5t8 20t11.5 21q16 22 33 40.5t37 32t45 21
t57 7.5q27 0 54.5 -11t41.5 -31q14 -18 19.5 -47.5t5.5 -77.5q0 -35 -13 -79t-35.5 -90t-52 -90t-63 -78t-69 -55t-69.5 -21q-39 0 -66 14t-44 36.5t-25 50.5t-8 56q0 34 2 58t6.5 45t10.5 42t15 50q8 28 21.5 57.5t29.5 57.5t33.5 51t34.5 37q11 9 11 13q0 6 -5 6t-18 -10
t-27.5 -23.5t-28.5 -28.5t-21 -24q-26 -33 -45.5 -65t-33 -65.5t-20.5 -70.5t-7 -80q0 -45 12.5 -86t37 -72t61 -49t84.5 -18z" />
    <glyph glyph-name="P" unicode="P" horiz-adv-x="667" 
d="M570 521q-26 -18 -49 -43.5t-43 -53t-36 -55.5t-28 -52q-19 -39 -43 -90.5t-55.5 -98t-73 -78.5t-95.5 -32q-11 0 -24 2t-24 7q-15 7 -23.5 14.5t-13.5 14t-7.5 11t-5.5 4.5q-4 0 -4 -6q0 -4 5 -14.5t18 -22t35 -20t56 -8.5q35 0 69 13t64.5 34t55 48t41.5 56
q27 46 45 85.5t33.5 76t30.5 71.5t35 72q10 19 22 36t20 25zM810 473q0 22 -7 45t-17 42t-21.5 30.5t-20.5 11.5q-10 0 -17 -3t-15 -7q-9 -3 -22.5 -6.5t-36.5 -3.5q-27 0 -56.5 6t-60.5 12q-32 7 -63 11.5t-63 4.5q-33 0 -65 -6t-62 -18.5t-56 -31.5t-46 -46t-29.5 -51.5
t-9.5 -55.5q0 -6 2 -17t6 -21.5t8.5 -18.5t9.5 -8q4 0 4 6q0 9 -6 21t-6 40q0 48 23 79t58.5 49t78 25.5t80.5 7.5q25 0 49 -3t47 -6q24 -3 47.5 -6t46.5 -3q37 0 63.5 6t44.5 13l28.5 9.5t14.5 3.5q7 0 13 -7t10 -17t6 -21t2 -19q0 -35 -15.5 -77.5t-42.5 -79t-62 -61
t-74 -24.5q-23 0 -37.5 5t-23.5 11t-13.5 11t-7.5 5q-4 0 -4 -6q0 -7 9 -15.5t23.5 -15.5t32 -12t35.5 -5q45 0 84.5 17t69.5 46.5t47 69t17 84.5z" />
    <glyph glyph-name="Q" unicode="Q" horiz-adv-x="500" 
d="M321 596q-49 0 -96 -16t-83.5 -45.5t-59 -72t-22.5 -95.5q0 -24 9.5 -47t25.5 -41t38 -29.5t46 -11.5q11 0 11 8q0 10 -22 10q-15 0 -28.5 9.5t-23.5 24t-16 31.5t-6 32q0 45 17.5 86t47.5 72t70.5 49t87.5 18q30 0 55.5 -8.5t44 -24.5t29.5 -40t11 -54
q0 -65 -27.5 -122.5t-74 -107t-106.5 -90.5t-124 -72q-58 -28 -85 -40t-27 -19q0 -4 7 -4q4 0 32 9t74 9q24 0 48 -2t47 -5q24 -3 47.5 -5t47.5 -2q37 0 56.5 4.5t31.5 9.5q14 6 24.5 15t17 18t9.5 16.5t3 9.5q0 7 -4 7t-9 -5.5t-15 -12.5t-27.5 -12.5t-45.5 -5.5
q-15 0 -31 2t-38.5 4.5t-53 4.5t-74.5 1v2q48 27 108.5 61.5t114 78t90 97.5t36.5 119q0 39 -15 72.5t-40.5 57.5t-60 38t-72.5 14z" />
    <glyph glyph-name="R" unicode="R" horiz-adv-x="667" 
d="M499 299q7 -1 14 -1.5t14 -0.5q39 0 79 15.5t72.5 42t53 63t20.5 78.5q0 13 -2.5 29t-9 30t-18 23.5t-29.5 9.5q-14 0 -29 -3t-31 -7q-15 -4 -31 -7t-32 -3q-29 0 -57 4.5t-57 9.5t-57.5 9.5t-57.5 4.5q-41 0 -87 -14t-85 -40.5t-65 -63.5t-26 -83q0 -21 6 -38.5t15 -30
t18 -19.5t15 -7q3 0 3 5q0 2 -6 8t-13.5 16t-13.5 24.5t-6 34.5q0 39 18.5 69t47 50.5t64 30.5t70.5 10q28 0 55.5 -2.5t55.5 -6.5q28 -3 55.5 -6t55.5 -3q38 0 66 7t48 15t34.5 13t25.5 5q8 0 18 -2.5t10 -22.5q0 -35 -20 -75t-52 -74.5t-72 -57.5t-80 -23q-17 0 -27 1
t-16 1q-5 0 -5.5 -4t-0.5 -8q0 -5 3.5 -26.5t9 -55.5t13 -76.5t16.5 -87.5q6 -30 20.5 -44.5t46.5 -14.5q16 0 29.5 8t23.5 18.5t15.5 22t5.5 18.5q0 4 -8 4q-4 0 -8.5 -7.5t-10 -17t-13 -17t-17.5 -7.5q-13 0 -21.5 9t-13.5 41zM534 511q0 2 -2 2.5t-4 0.5q-7 0 -20.5 -8.5
t-20.5 -13.5q-39 -30 -69 -77t-56.5 -99.5t-52 -105.5t-54 -95.5t-63.5 -69.5t-80 -27q-23 0 -49.5 5.5t-50.5 32.5q-18 20 -22 34.5t-8 14.5q-5 0 -5 -6q0 -3 2 -9t12 -26q13 -24 46 -44t84 -20q31 0 62 10.5t58.5 28t51 41t38.5 49.5q33 57 55 110t41.5 100t40 87t51.5 71
q5 5 10 8.5t5 5.5z" />
    <glyph glyph-name="S" unicode="S" horiz-adv-x="556" 
d="M140 299q-26 0 -47.5 -10t-36.5 -26.5t-23.5 -38t-8.5 -43.5q0 -47 20.5 -81t55 -56t80.5 -33t98 -11q41 0 82.5 14t74.5 40t53.5 64.5t20.5 88.5q0 38 -14.5 69t-36.5 58t-47 50.5t-47 45.5t-36.5 43t-14.5 44q0 19 7.5 33t20 23t29 13t33.5 4q12 0 29 -3t32 -9
t26 -15.5t11 -23.5q0 -10 -8.5 -19t-21.5 -9q-5 0 -5 -7q0 -6 12.5 -13.5t23.5 -7.5q14 0 24.5 10t10.5 34q0 16 -12.5 30.5t-32 25.5t-43 18t-46.5 7q-25 0 -48.5 -5.5t-42 -18.5t-30 -33t-11.5 -48t14.5 -52.5t36.5 -48t47 -47t47 -50.5t36.5 -58t14.5 -69q0 -33 -15 -62
t-40 -50.5t-59 -34.5t-71 -13q-47 0 -87 8.5t-68.5 25t-44.5 42t-16 59.5q0 49 26 83.5t78 34.5q13 0 27.5 -5.5t20.5 -5.5q7 0 7 9q0 3 -7.5 8t-19.5 10t-27.5 8.5t-30.5 3.5z" />
    <glyph glyph-name="T" unicode="T" horiz-adv-x="500" 
d="M607 538q-38 -31 -67.5 -67t-56 -81t-52.5 -99.5t-57 -122.5q-15 -33 -34.5 -61t-44 -47.5t-56 -30.5t-71.5 -11q-24 0 -46.5 3.5t-39 13t-26.5 25.5t-10 41q0 7 -4 8.5t-7 1.5q-5 0 -6 -5.5t-1 -9.5q0 -26 11.5 -44t30 -29.5t42 -17t48.5 -5.5q78 0 136.5 26t103.5 91
q38 55 62 110.5t45.5 108.5t48 102t69.5 92q8 8 18 16.5t10 13.5q0 4 -5 4q-3 0 -12.5 -2t-22.5 -4.5t-27.5 -4.5t-28.5 -2q-35 0 -69.5 6.5t-69.5 13.5q-34 7 -67.5 13t-66.5 6q-35 0 -72 -9t-67.5 -28.5t-50.5 -49t-20 -70.5q0 -15 4 -30.5t9.5 -28.5t12.5 -21.5t13 -8.5
q5 0 5 5q0 3 -4 8.5t-9 14.5t-9 21.5t-4 29.5q0 35 17.5 58t44.5 36.5t58.5 19t59.5 5.5q54 0 106 -6.5t106 -6.5q46 0 72.5 5t46.5 7z" />
    <glyph glyph-name="U" unicode="U" horiz-adv-x="722" 
d="M58 319q0 -21 6 -44.5t18 -44t30 -33.5t43 -13q9 0 17.5 3t8.5 8q0 4 -7.5 5.5t-18.5 1.5q-15 0 -26.5 7.5t-18.5 19t-10.5 26.5t-3.5 30q0 46 17 97.5t48 95t74.5 72t95.5 28.5q19 0 37.5 -4.5t33.5 -13.5t24.5 -23t9.5 -32q0 -22 -13.5 -55t-33.5 -72t-43.5 -81
t-43.5 -82.5t-33.5 -77t-13.5 -63.5q0 -33 16.5 -53.5t52.5 -20.5q31 0 65 27t68.5 68t67 90t59 93t46 76.5t28.5 41.5l2 -2q-23 -49 -41.5 -89t-33.5 -75t-28.5 -68.5t-26.5 -68.5q-9 -23 -15 -37.5t-12.5 -22.5t-14 -11.5t-17.5 -3.5q-8 0 -10.5 -3.5t-2.5 -6.5
q0 -8 16 -8q14 0 27.5 3t27.5 3q15 0 27 -3t41 -3q9 0 17.5 4t15.5 9.5t11.5 12t4.5 11.5q0 7 -7 7q-3 0 -6 -4t-6.5 -9t-9 -9t-12.5 -4q-12 0 -16 9t-4 17q0 6 6 32t18 65t29.5 88.5t40.5 103.5t51 109.5t61 107.5q13 20 20.5 26t7.5 9q0 7 -6 7t-25 -14.5t-52.5 -53.5
t-82.5 -108.5t-115 -179.5q-24 -40 -53.5 -79t-59.5 -70t-56.5 -50t-44.5 -19q-17 0 -24 5.5t-7 21.5q0 21 13 53.5t32 70.5t41.5 79.5t41.5 81t32 74.5t13 60q0 59 -33.5 95.5t-96.5 36.5q-54 0 -104 -23.5t-89 -62t-62 -88.5t-23 -103z" />
    <glyph glyph-name="V" unicode="V" horiz-adv-x="556" 
d="M86 164q0 -34 8 -63.5t25 -52t43 -35.5t62 -13q43 0 82.5 17t74 43t62.5 56t47 56q32 45 52 80t31.5 66t15.5 61t4 65q0 18 -2 43t-9.5 47.5t-22 38t-39.5 15.5q-7 0 -18 -4t-11 -11q0 -8 5 -8q3 0 9 2.5t11 2.5q28 0 43.5 -25t15.5 -61q0 -39 -14 -88.5t-39 -101
t-58.5 -101.5t-73 -88.5t-82.5 -62.5t-87 -24q-24 0 -40 8t-25.5 22.5t-13.5 33t-4 39.5q0 79 21 147t49 120.5t54 88.5t37 53q6 10 15.5 20.5t17.5 19.5t14 15t6 7q0 4 -5 4q-2 -1 -14 -4.5t-30 -7.5t-29 -4q-19 0 -37.5 5.5t-37.5 9.5t-37.5 7.5t-38.5 3.5t-40 -6.5
t-36.5 -18.5t-27 -29.5t-10.5 -39.5q0 -14 2.5 -25t8.5 -11q9 0 9 6q0 2 -1 9t-1 12q3 37 21.5 50t51.5 13q15 0 30 -3l30 -6t30 -6.5t29 -3.5q25 0 43 6t33 5q0 -6 -10 -14t-36 -31q-18 -16 -45.5 -49t-53.5 -78.5t-45 -102t-19 -119.5z" />
    <glyph glyph-name="W" unicode="W" horiz-adv-x="667" 
d="M439 370q0 -46 -20 -98t-46 -96.5t-50.5 -73.5t-33.5 -29q-4 0 -6.5 10t-4 25t-2 33t-0.5 34q0 29 11 71t30 80.5t43.5 66t51.5 27.5q15 0 21 -10.5t6 -39.5zM293 566q-2 -3 -8 -10.5t-13.5 -16t-15 -16.5t-10.5 -11q-30 -32 -64 -78t-62.5 -97t-47.5 -103t-19 -97
q0 -26 6.5 -50.5t20 -44t35 -31t50.5 -11.5q35 0 61.5 11.5t53.5 33.5q17 -26 37 -35.5t49 -9.5q33 0 60.5 11t52.5 26q41 25 77.5 67t63.5 95t42.5 112.5t15.5 119.5q0 27 -5 55t-16.5 50.5t-29.5 37t-43 14.5q-6 0 -6 -6q0 -2 5.5 -3.5t13 -4t15 -6t12.5 -9.5
q17 -20 22.5 -43t5.5 -47q0 -32 -10.5 -78t-29 -96t-45.5 -99.5t-59.5 -89t-70 -64t-78.5 -24.5q-22 0 -39.5 10.5t-25.5 28.5q30 27 59.5 65t52.5 80.5t37 88t14 87.5q0 24 -10.5 42t-34.5 18q-33 0 -61.5 -29t-49 -71t-32 -89.5t-11.5 -83.5q0 -37 3 -61.5t8 -44.5
q-18 -16 -43.5 -28.5t-52.5 -12.5q-20 0 -32.5 7.5t-19.5 20t-9.5 29t-2.5 33.5q0 81 31.5 164t77.5 157q23 37 45 67.5t39 51.5t27 33t10 14q0 6 -5 6t-29.5 -6.5t-61.5 -6.5q-23 0 -40 3l-34 6t-37 6t-49 3q-14 0 -29 -6t-27.5 -14.5t-20.5 -17t-8 -13.5q0 -3 3 -3
q4 0 7 3t8.5 6t14.5 6t25 3q14 0 26.5 -4.5t31.5 -9.5q13 -4 30.5 -8t34.5 -4q29 0 57 6t56 17z" />
    <glyph glyph-name="X" unicode="X" horiz-adv-x="611" 
d="M716 596q-30 0 -60.5 -17t-59 -42.5t-54 -55.5t-45.5 -55.5t-33 -42.5t-17 -17q-5 0 -5.5 8.5t-2.5 16.5q-3 17 -13 51t-30 68.5t-50.5 60t-73.5 25.5q-31 0 -53.5 -9.5t-37 -22t-21.5 -26t-7 -20.5q0 -6 5 -6q2 0 4.5 5t7 13t13 17t22.5 18q12 7 25.5 10t38.5 3
q36 0 58 -26t36 -66.5t23 -89t19 -93.5q-27 -30 -60.5 -76t-72 -89.5t-82 -74.5t-89.5 -31q-23 0 -39.5 6.5t-28 15t-18 15t-9.5 6.5q-6 0 -6 -7q0 -12 8.5 -27.5t25.5 -27.5q9 -8 27.5 -10.5t34.5 -2.5q41 0 78 21t68.5 50.5t58 61.5t46.5 55q11 12 21.5 25t19 24.5
t15 18.5t9.5 7q2 0 5.5 -16t8.5 -40t10 -52.5t9 -53t6.5 -42t2.5 -18.5q0 -23 -19 -23q-3 0 -6 -1.5t-3 -8.5q0 -8 22 -8q3 0 9.5 1t13.5 1.5t13 1.5t9 1q2 0 10 -1t17 -1.5t17.5 -1.5t13.5 -1q6 0 12 2t6 9q0 5 -4 6t-12 1q-10 0 -26 12q-6 6 -12.5 27.5t-13.5 51t-14 63.5
t-13 65t-11.5 56.5t-8.5 36.5q22 27 51.5 69t64 81.5t73 67.5t77.5 28q31 0 43 -8t17 -8t5 3q0 6 -7 11.5t-17 10.5t-22.5 8t-22.5 3z" />
    <glyph glyph-name="Y" unicode="Y" horiz-adv-x="611" 
d="M280 551q-26 -35 -51 -72.5t-45 -77t-32.5 -82t-12.5 -88.5q0 -30 7 -57.5t22 -48.5t39 -33.5t58 -12.5t65 16.5t58.5 43.5t52 61t45 69.5t36.5 69t28 58.5h2q-2 -30 -18 -83.5t-44.5 -116t-68 -126.5t-88.5 -116.5t-107 -85.5t-122 -33q-45 0 -72 27t-27 67q0 8 1 14
t-1 10q-2 6 -8 6q-5 0 -7.5 -9.5t-2.5 -22.5q0 -27 10.5 -47.5t28 -34.5t40.5 -21t47 -7q45 0 92.5 17t94 47t88 70.5t74.5 87.5t59 99t44.5 103.5t28.5 101.5t10 94q0 34 -10.5 74.5t-30.5 69.5q-2 0 -5.5 -0.5t-3.5 -4.5t5 -20.5t5 -42.5q0 -23 -10.5 -57t-28 -72.5
t-40 -79t-46.5 -75.5t-48.5 -61.5t-44.5 -38.5q-14 -8 -29 -11.5t-27 -3.5q-25 0 -43 13.5t-29.5 33.5t-17 44.5t-5.5 47.5q0 67 20 126.5t43.5 104t43.5 70.5t20 27q0 6 -5 6q-8 0 -29.5 -9t-56.5 -9q-20 0 -37.5 3t-34 6t-33.5 6t-36 3q-18 0 -35 -4.5t-30 -14t-21 -24
t-8 -34.5q0 -11 3.5 -22.5t9.5 -11.5q9 0 9 5t-2 9.5t-2 8.5q0 26 12.5 36t32.5 10q6 0 19.5 -3t29.5 -6t33 -6t29 -3q29 0 55 9t53 17z" />
    <glyph glyph-name="Z" unicode="Z" horiz-adv-x="667" 
d="M110 51q61 52 111.5 115.5t101 129.5t107 130.5t129.5 118.5q6 5 15.5 12.5t9.5 11.5q0 9 -9 9q-8 0 -21.5 -6.5t-42.5 -6.5q-32 0 -63 8t-63 18t-64.5 17.5t-65.5 7.5q-23 0 -47 -5.5t-43.5 -17.5t-31.5 -30.5t-12 -45.5q0 -6 1.5 -16t5.5 -20t9.5 -17.5t13.5 -7.5
q5 0 5 5q0 3 -8.5 17t-8.5 40q0 35 24 49.5t55 14.5q26 0 51.5 -6t52.5 -14t57.5 -13.5t66.5 -5.5q23 0 48.5 3t39.5 5l1 -4q-51 -35 -103 -75.5t-104 -91.5t-103.5 -116.5t-102.5 -151.5q-8 -13 -23 -29.5t-29.5 -31.5t-25.5 -26t-11 -12q0 -5 6 -5q1 0 9.5 2.5t21.5 5.5
t28.5 5.5t30.5 2.5q39 0 64.5 -4t51.5 -8q25 -4 56 -8t80 -4q50 0 93.5 12.5t75.5 37t50.5 61.5t18.5 86q0 36 -12 60.5t-20 24.5q-6 0 -6 -7q0 -4 10 -24t10 -53q0 -37 -14 -67.5t-38 -52t-55.5 -33t-66.5 -11.5q-27 0 -53.5 6.5t-53.5 11.5q-26 5 -52.5 8.5t-54.5 3.5
q-26 0 -52 -5t-50 -11z" />
    <glyph glyph-name="bracketleft" unicode="[" horiz-adv-x="444" 
d="M-25 -203q49 0 83.5 -1.5t56.5 -3t33 -3t15 -1.5q8 0 8 5q0 6 -14 11.5t-34 9.5t-42 7.5t-37 6.5l346 732q8 2 29.5 5t43.5 7t39 9.5t17 12.5q0 6 -6 6q-7 0 -52 -5t-113 -7z" />
    <glyph glyph-name="backslash" unicode="\" horiz-adv-x="278" 
d="M-59 616l371 -616h26l-371 616h-26z" />
    <glyph glyph-name="bracketright" unicode="]" horiz-adv-x="444" 
d="M469 592q-50 0 -84 1t-56 2.5t-33 3t-15 1.5q-8 0 -8 -5q0 -6 14 -11.5t34 -9.5t42 -7.5t37 -6.5l-346 -732q-8 -2 -29.5 -5t-43.5 -7t-39 -9.5t-17 -12.5q0 -6 6 -6q7 0 52 5t113 7z" />
    <glyph glyph-name="asciicircum" unicode="^" horiz-adv-x="600" 
d="M182 110l118 254l118 -254h32l-135 290h-30l-135 -290h32z" />
    <glyph glyph-name="underscore" unicode="_" horiz-adv-x="500" 
d="M500 -125v50h-500v-50h500z" />
    <glyph glyph-name="grave" unicode="`" horiz-adv-x="222" 
d="M52 470q0 -27 20.5 -54t46.5 -48t50 -34.5t30 -13.5q7 0 7 7q0 3 -8 8.5t-20 15t-25.5 24t-23.5 36.5q-5 10 -8 25t-7.5 28.5t-13 23.5t-24.5 10q-8 0 -16 -8.5t-8 -19.5z" />
    <glyph glyph-name="a" unicode="a" horiz-adv-x="389" 
d="M255 0q13 0 22 0.5t15.5 2t11.5 5t10 10.5q10 12 13 19.5t3 16.5q0 5 -2 5.5t-6 0.5q-3 0 -5 -6.5t-5.5 -14.5t-11 -14.5t-21.5 -6.5q-11 0 -15.5 9t-4.5 18q0 21 12 50t29 59t35 57.5t30 45.5q-14 11 -39.5 14t-57.5 3q-41 0 -87 -16t-85 -42.5t-65 -60.5t-26 -70
q0 -48 25.5 -66.5t70.5 -18.5q21 0 38.5 3.5t36.5 14.5q-1 -5 -2 -7t-1 -7q0 -4 7 -4h75zM67 90q0 31 23 61t56 53.5t70 37.5t65 14q10 0 20 -4q-18 -30 -37.5 -60.5t-39.5 -80.5q-5 -11 -11.5 -25t-17.5 -27t-28 -22t-41 -9q-30 0 -44.5 16.5t-14.5 45.5z" />
    <glyph glyph-name="b" unicode="b" horiz-adv-x="389" 
d="M282 202q0 -31 -17.5 -63.5t-44.5 -59.5t-60 -44t-64 -17q-20 0 -38 7.5t-18 14.5q0 5 3.5 9.5t11 16.5t20.5 34t31 63q8 18 18 35.5t23.5 31.5t30.5 23t40 9q30 0 47 -14.5t17 -45.5zM150 259q12 21 26.5 52.5t31.5 66t37 69t43 62t49 44.5t55 17q24 0 38.5 -7.5t23 -16
t12 -16t6.5 -7.5q5 0 5 8q0 10 -7 20t-18.5 18.5t-27 13.5t-32.5 5q-35 0 -67 -16.5t-59 -41t-48.5 -52.5t-36.5 -51q-16 -26 -28.5 -47.5t-24 -45t-24.5 -52t-30 -67.5q-18 -40 -32 -65.5t-23.5 -41t-15 -24.5t-5.5 -16q0 -11 10.5 -23t26 -22t35 -16.5t37.5 -6.5
q25 0 43 1.5t34 6t30.5 12.5t32.5 21t34 30t29 36t20.5 40.5t7.5 43.5t-9 38.5t-23 27.5t-33 17t-38 6q-23 0 -44 -5t-39 -16l-2 2v-2z" />
    <glyph glyph-name="c" unicode="c" 
d="M5 113q0 -51 31.5 -82t82.5 -31q38 0 63 12t50 38q23 24 32 33.5t9 18.5q0 3 -2 4t-4 1t-12 -12.5t-26 -27t-38.5 -27t-49.5 -12.5q-19 0 -33.5 8.5t-25 22.5t-16 31t-5.5 34q0 25 12 50t31.5 44.5t44 31.5t50.5 12q37 0 49.5 -4.5t12.5 -16.5q0 -11 -9 -21.5t-16 -10.5
q-5 0 -9 -2.5t-4 -7.5q0 -11 12.5 -14.5t23.5 -3.5q24 0 39 19t15 41q0 10 -3 24.5t-13 14.5q-7 0 -13 -4t-17 -4q-16 0 -32.5 4t-45.5 4q-36 0 -69 -12.5t-58.5 -34.5t-41 -53t-15.5 -67z" />
    <glyph glyph-name="d" unicode="d" horiz-adv-x="389" 
d="M9 103q0 -53 36 -78t87 -25q31 0 56 11q32 14 55.5 40.5t43.5 64.5t39 86.5t41 105.5q23 59 39 108t30.5 83.5t31.5 53.5t41 19q20 0 31.5 -9.5t14.5 -9.5q5 0 5 6q0 7 -6 13t-14.5 10t-17 6t-14.5 2q-23 0 -41.5 -12.5t-32.5 -29.5q-23 -27 -43.5 -64.5t-39.5 -78
t-35 -80.5t-30 -73q-12 20 -35 29t-45 9q-35 0 -70.5 -15.5t-63.5 -41.5t-45.5 -60t-17.5 -70zM65 84q0 29 12.5 61.5t34 59.5t49.5 45t59 18q18 0 33 -8t15 -30q0 -7 -5 -25t-14.5 -42t-22.5 -49.5t-28.5 -46.5t-33 -35t-35.5 -14q-35 0 -49.5 15.5t-14.5 50.5z" />
    <glyph glyph-name="e" unicode="e" 
d="M7 109q0 -26 9.5 -46t25.5 -34t38 -21.5t46 -7.5t43.5 2.5t43.5 14.5q3 1 12.5 6.5t19.5 12t18 14t8 12.5q0 6 -5 6t-9.5 -4t-11.5 -9q-11 -8 -33.5 -17.5t-54.5 -9.5q-14 0 -29.5 6.5t-28 18t-20.5 26.5t-8 33q9 -2 20 -3t21 -1q32 0 65 8t63 29q13 9 25 22.5t21 27.5
t14.5 27.5t5.5 24.5q0 23 -15 33t-34 10q-36 0 -79.5 -13t-81.5 -37t-63.5 -57.5t-25.5 -73.5zM250 235q0 -20 -15.5 -40.5t-36.5 -37.5q-19 -15 -42.5 -23t-53.5 -8q-9 0 -17 2t-16 3q0 23 13.5 46.5t34 42t45 30.5t45.5 12q15 0 29 -4.5t14 -22.5z" />
    <glyph glyph-name="f" unicode="f" horiz-adv-x="222" 
d="M51 181l-33.5 -100.5t-45.5 -119.5t-60 -115t-77 -87q-3 -2 -6 -4.5t-3 -6.5t7 -4q14 0 37 19t48 47t48 60t38 58q41 73 64.5 141.5t44.5 125.5q10 3 22.5 12t23.5 9q4 0 6 -1.5t4 -3.5t5 -3.5t11 -1.5q9 0 16 7.5t7 16.5q0 36 -36 36q-10 0 -23.5 -6.5t-18.5 -14.5l-2 2
q6 14 16.5 43.5t23.5 65.5t29 73.5t34 69t37.5 51.5t39.5 20q19 0 26.5 -8t11 -18t8 -18t18.5 -8q8 0 14 7t6 15q0 12 -6.5 21t-17 15t-22.5 9t-22 3q-33 0 -63 -22t-57 -57.5t-50.5 -80t-43 -90t-34.5 -87t-25 -70.5z" />
    <glyph glyph-name="g" unicode="g" horiz-adv-x="389" 
d="M72 79q0 37 21.5 70.5t54.5 58.5t72 39.5t73 14.5q12 0 23.5 -2t22.5 -5q-38 -28 -66 -63t-48 -82q-6 -15 -15 -30.5t-21 -28t-26.5 -21t-32.5 -8.5q-25 0 -41.5 15.5t-16.5 41.5zM181 17q-12 -25 -33 -63.5t-46.5 -76.5t-53 -70t-52.5 -44q-14 -7 -22 -8.5t-23 -1.5
q-17 0 -28.5 4t-18.5 9.5t-10.5 9.5t-5.5 4q-8 0 -8 -5q0 -11 19.5 -25.5t53.5 -14.5q35 0 66 14t56.5 35t46 44.5t34.5 43.5q36 49 60 95.5t42 87.5t34 76.5t35 61.5t31 41.5t18.5 23.5t8.5 10.5t2 4.5q0 5 -3 5q-4 0 -11 -3t-17 -3t-27 4t-37 4q-42 0 -90.5 -12.5t-90 -37
t-68.5 -62t-27 -88.5q0 -41 28 -60.5t65 -19.5q20 0 37.5 3.5t32.5 15.5z" />
    <glyph glyph-name="h" unicode="h" horiz-adv-x="444" 
d="M326 280q-25 0 -49 -9t-47 -23t-44 -30t-40 -29l-2 2q13 21 32 58t42.5 80t50.5 87t56 80t59.5 59t61.5 23q18 0 29 -6.5t17.5 -16t8.5 -19.5t2 -17q0 -3 3 -4.5t6 -1.5t6 1.5t3 4.5q0 31 -21 54t-53 23q-41 0 -82 -28t-80.5 -73t-76.5 -101t-69 -111.5t-58.5 -105
t-45.5 -81.5q-7 -12 -14.5 -25.5t-16 -25t-18 -19.5t-19.5 -8q-11 0 -15.5 4.5t-6.5 4.5q-7 0 -7 -8q0 -5 8.5 -12t26.5 -7q17 0 29.5 1t25.5 1q11 0 22.5 -1.5t28.5 -1.5q25 0 44 14.5t19 26.5q0 6 -4 6t-9 -4.5t-11 -9.5t-13 -9.5t-14 -4.5q-8 0 -13 3t-5 12
q0 23 22.5 61.5t57.5 76t76.5 64.5t79.5 27q17 0 23 -9t6 -24q0 -10 -10.5 -33.5t-26.5 -51.5t-35.5 -57t-38.5 -50q-11 -13 -20 -16t-24 -3q-4 0 -7 -0.5t-3 -5.5q0 -11 23 -11q11 0 22.5 1.5t23.5 1.5q14 0 28.5 -2t28.5 -2q25 0 42.5 11t17.5 21q0 4 -3 4.5t-5 0.5
t-10 -9.5t-22 -9.5q-15 0 -15 18q0 10 13.5 30.5t29.5 46t29.5 52t13.5 49.5q0 28 -17.5 47t-46.5 19z" />
    <glyph glyph-name="i" unicode="i" horiz-adv-x="222" 
d="M193 274q-3 0 -20 -7t-38 -16t-40.5 -17.5t-27.5 -11.5q-9 -4 -9 -11q0 -5 5 -5q9 0 24.5 5t28.5 7q-18 -29 -36 -63.5t-34.5 -65t-31 -51t-24.5 -20.5q-12 0 -19.5 -3t-7.5 -8q0 -6 4 -6.5t18 -0.5q12 0 24 2t23 2q13 0 25.5 -2t25.5 -2q5 0 12.5 0.5t14.5 2.5t12 5.5
t5 10.5q0 4 -7 4q-5 0 -8.5 -2.5t-8.5 -2.5q-10 0 -15.5 8t-5.5 17q0 11 30.5 63t82.5 146q2 4 4 6.5t2 6.5q0 9 -8 9zM242 440q-14 0 -23.5 -10.5t-9.5 -22.5t9.5 -22.5t23.5 -10.5t23.5 10.5t9.5 22.5t-9.5 22.5t-23.5 10.5z" />
    <glyph glyph-name="j" unicode="j" horiz-adv-x="222" 
d="M53 217q1 0 12 4.5t25 10.5t29.5 12.5t27.5 10.5l2 -2q-27 -35 -50 -70.5t-46 -77.5t-48 -92t-56 -113q-21 -42 -39 -66t-32.5 -35.5t-24 -14.5t-12.5 -3q-12 0 -12 -11q0 -7 8 -7q15 0 31 7t30.5 16.5t25.5 19.5t16 16q61 69 98.5 142t63.5 148q12 34 27 63.5t28.5 52.5
t23 38t9.5 19q0 5 -7 5q-4 0 -25.5 -9t-46 -20.5t-44.5 -22t-20 -13.5q0 -8 6 -8zM251 450q-14 0 -23.5 -10.5t-9.5 -22.5t9.5 -22.5t23.5 -10.5t23.5 10.5t9.5 22.5t-9.5 22.5t-23.5 10.5z" />
    <glyph glyph-name="k" unicode="k" horiz-adv-x="389" 
d="M416 580q-29 0 -49 -11t-42 -30q-37 -32 -67 -69.5t-59 -85.5t-61 -108.5t-74 -138.5q-3 -5 -14 -24t-25 -40t-29.5 -38t-27.5 -17q-11 0 -18.5 -1.5t-7.5 -6.5q0 -10 34 -10q13 0 25 2t24 2q11 0 21.5 -2t33.5 -2q10 0 19 4t15.5 10t10.5 12t4 10q0 7 -4 7q-3 0 -6 -4
t-7.5 -8.5t-11 -8.5t-16.5 -4q-6 0 -8.5 5t-2.5 10q0 10 6 24t14 29t17 28.5t15 21.5q12 16 28 36t35 38t40.5 30t42.5 12q14 0 20 -8t6 -22q0 -26 -13 -41.5t-33 -24t-44 -11.5t-47 -3q9 -31 17 -60t8 -58q0 -4 -1 -9t-1 -8q0 -7 4 -7q3 0 12 2t18 2q14 0 23 -4t16 -4
t15.5 4t15 11t8.5 14.5t-2 15.5q-6 -1 -9.5 -5l-7 -8t-7.5 -7t-10 -3q-11 0 -18 14.5t-11.5 32.5t-7 35.5t-3.5 23.5q19 4 42 11.5t43.5 19.5t34.5 29.5t14 40.5q0 26 -16.5 37.5t-39.5 11.5q-38 0 -69.5 -19t-59.5 -41l-2 2q19 41 38.5 82.5t40.5 76.5q9 15 25 46
t38.5 62.5t49 55t56.5 23.5q17 0 27 -5.5t18 -12.5q7 -12 8 -19t6 -7q4 0 4 6q0 25 -19 40.5t-42 15.5z" />
    <glyph glyph-name="l" unicode="l" horiz-adv-x="222" 
d="M331 588q-27 0 -48.5 -16.5t-39.5 -41.5t-32.5 -53.5t-26.5 -52.5q-13 -26 -28 -62t-31 -76.5t-32 -81.5t-30.5 -76t-27.5 -61t-22 -36q-13 -13 -26 -13q-8 0 -13 1t-7 1q-10 0 -10 -6q0 -5 5 -8t12 -4.5t14 -1.5h10q13 -1 25.5 1t25.5 2q12 0 24 -1.5t24 -1.5
q10 0 23 2.5t13 13.5q0 4 -5 4q-3 0 -6.5 -1t-7.5 -1q-15 0 -18.5 5.5t-3.5 16.5q0 7 7.5 29.5t19.5 54.5t27 71t31 80.5t31.5 82.5t27.5 77q4 11 11.5 33.5t19.5 45t28.5 39.5t36.5 17q15 0 24.5 -5.5t15.5 -11.5t9 -11.5t6 -5.5q6 0 6 8q0 9 -6 17t-15 14t-20 9.5t-21 3.5
z" />
    <glyph glyph-name="m" unicode="m" horiz-adv-x="556" 
d="M449 193q0 -32 -17 -62.5t-37 -56t-37 -42.5t-17 -21q0 -5 4 -5t11 1t13 1q14 0 22 -4t28 -4q13 0 25 5.5t21.5 13.5t15 16.5t5.5 13.5t-6 5q-3 0 -15.5 -9t-41.5 -9q-12 0 -19.5 2t-7.5 7q0 1 17 16.5t37.5 38.5t37.5 50.5t17 54.5q0 35 -19 55t-54 20
q-32 0 -60.5 -19.5t-50.5 -39.5q-8 26 -21 42.5t-35 16.5q-14 0 -28.5 -5t-27 -12.5t-23.5 -16t-17 -14.5l-2 2q2 9 7 19t5 15q0 6 -6 6q-2 0 -20 -4t-39 -10t-38 -12.5t-17 -10.5q0 -2 0.5 -4t4.5 -2q5 0 20 3.5t27 5.5q-24 -47 -46 -87.5t-40.5 -70.5t-33.5 -47t-26 -17
q-8 0 -13 -2t-5 -7t5.5 -5.5t8.5 -0.5q8 0 14 1.5t12 1.5q19 0 34.5 -3t34.5 -3q17 0 32 10.5t15 18.5q0 5 -6 5q-5 0 -11 -6t-14 -6q-9 0 -9 14q0 13 9.5 33.5t22.5 42.5t26 41t21 28q10 12 23 25t26.5 24t27 18.5t24.5 7.5q26 0 26 -29q0 -11 -11.5 -35.5t-28 -54
t-35 -58.5t-33.5 -48q-2 -3 -9 -10.5t-7 -13.5q0 -7 7 -7q8 0 16 3t17 3q12 0 23.5 -3t23.5 -3q6 0 16 2t19 5.5t15.5 9t6.5 12.5q0 3 -2 4t-4 1q-6 0 -16 -8t-20 -8q-6 0 -12 2.5t-6 10.5q0 9 5.5 21.5t13 25t15 24t12.5 18.5q9 14 22.5 36t30 42.5t35.5 35t39 14.5
q26 0 36.5 -16t10.5 -39z" />
    <glyph glyph-name="n" unicode="n" horiz-adv-x="389" 
d="M289 207q0 -21 -9 -46t-22 -49t-28 -44t-26 -31q-8 -8 -15.5 -16t-7.5 -15q0 -6 11 -6q5 0 9.5 2t11.5 2q10 0 20.5 -2t23.5 -2q21 0 34.5 11t13.5 20q0 4 -8 4q-5 0 -12 -3.5t-18 -3.5q-12 0 -20.5 2.5t-8.5 9.5q0 4 16.5 20t37 40t37 53.5t16.5 60.5q0 33 -20 49.5
t-52 16.5q-11 0 -26.5 -5t-31 -12.5t-29 -15.5t-22.5 -15q2 9 7 19t5 16q0 7 -6 7q-4 0 -9 -2.5t-11 -4.5q-20 -8 -38.5 -14.5t-32.5 -11.5t-22.5 -9.5t-8.5 -7.5q0 -5 5 -5q11 0 26 5t27 7q-24 -46 -46.5 -91t-47.5 -91q-6 -12 -15.5 -21.5t-25.5 -9.5q-8 0 -13.5 -5
t-5.5 -9q0 -3 4.5 -3.5t9.5 -0.5q12 0 26 2t23 2q6 0 17 -2t31 -2q3 0 11 2.5t15.5 6.5t13.5 8.5t6 9.5q0 8 -7 8q-5 0 -11.5 -8.5t-15.5 -8.5q-11 0 -11 11q0 8 3.5 18t9 20.5t11 20.5t9.5 17q11 20 26 45.5t34.5 48t42.5 38t49 15.5q23 0 31.5 -11.5t8.5 -33.5z" />
    <glyph glyph-name="o" unicode="o" 
d="M4 100q0 -19 6.5 -37t19 -32t31.5 -22.5t45 -8.5q28 0 60.5 9.5t60.5 30.5t46 54t18 80q0 19 -6.5 37t-19 32t-32 22.5t-44.5 8.5q-29 0 -61 -11t-60 -33t-46 -54.5t-18 -75.5zM46 76q0 24 12.5 55.5t33 59t47 46.5t53.5 19q34 0 45.5 -16.5t11.5 -41.5
q0 -24 -12.5 -55.5t-33 -59t-47 -46.5t-53.5 -19q-34 0 -45.5 16.5t-11.5 41.5z" />
    <glyph glyph-name="p" unicode="p" horiz-adv-x="389" 
d="M285 206q0 -23 -10.5 -55.5t-28.5 -62t-42 -50t-51 -20.5q-11 0 -22.5 2.5t-20.5 8.5t-15 15t-6 22q0 10 5.5 28.5t15.5 40.5t24 44.5t30 41t34.5 30t37.5 11.5q26 0 37.5 -15t11.5 -41zM341 171q0 22 -6.5 41.5t-19 34.5t-30.5 24t-41 9q-18 0 -35 -7.5t-33 -16.5
q-2 5 -4 9.5t-6 4.5q-3 0 -22.5 -5t-42 -12t-41 -14t-18.5 -10t1.5 -6t3.5 -3q11 0 24.5 4.5t26.5 6.5q-30 -54 -54 -110t-47 -113q-11 -29 -24 -57.5t-28 -55t-33.5 -49.5t-41.5 -41q-5 -5 -11.5 -10t-6.5 -8q0 -6 5 -6t17 8q27 16 54.5 41.5t53 58t48.5 72t41 83.5
q17 -28 39 -36t54 -8t63.5 14.5t57 38.5t41 54.5t15.5 63.5z" />
    <glyph glyph-name="q" unicode="q" horiz-adv-x="389" 
d="M67 77q0 27 14 53.5t35.5 49.5t47 40.5t48.5 27.5q21 9 44 11.5t42 2.5q7 0 12.5 -0.5t10.5 -1.5q-32 -39 -65.5 -80.5t-61.5 -87.5q-15 -25 -36.5 -44.5t-48.5 -19.5q-25 0 -33.5 13t-8.5 36zM399 278q-13 0 -43 1t-60 1q-51 0 -102 -15.5t-91.5 -43.5t-66 -67.5
t-25.5 -87.5q0 -25 19 -44.5t45 -19.5q20 0 37.5 4.5t34.5 13.5h2q-36 -65 -58.5 -127.5t-22.5 -138.5q0 -7 0.5 -15.5t1.5 -16t3.5 -12.5t6.5 -5q11 0 13.5 14t4.5 29q9 61 40 131.5t74 141t93 136t97 117.5z" />
    <glyph glyph-name="r" unicode="r" 
d="M64 37q0 12 8.5 33t22.5 45t32.5 48.5t39.5 44t42.5 32t41.5 12.5q14 0 20 -7.5t6 -17.5q0 -11 -6.5 -22t-6.5 -14q0 -8 18 -8q22 0 36.5 11.5t14.5 35.5q0 23 -14 33.5t-37 10.5q-28 0 -59 -13t-51 -32l-2 2q6 14 14.5 22.5t8.5 15.5q0 5 -12 5q-8 0 -26.5 -4.5
t-37.5 -10.5t-33.5 -12t-14.5 -9q0 -8 6 -8q9 0 21 5.5t23 7.5q-19 -29 -35 -57.5t-29 -52.5t-22.5 -42.5t-15.5 -28.5q-11 -18 -22 -31t-29 -13q-24 0 -24 -10q0 -8 22 -8q17 0 29.5 2t24.5 2q11 0 24 -2t37 -2q17 0 29.5 8.5t12.5 15.5t-4 7q-5 0 -7 -2t-5 -4.5t-8.5 -4.5
t-15.5 -2q-11 0 -14 5t-3 14z" />
    <glyph glyph-name="s" unicode="s" horiz-adv-x="278" 
d="M238 225q0 13 -9.5 23.5t-22.5 17.5t-28 10.5t-25 3.5q-31 0 -52 -16t-21 -49q0 -18 9.5 -35t20.5 -34q10 -14 21 -32.5t11 -37.5q0 -29 -19.5 -43.5t-48.5 -14.5q-5 0 -13.5 0.5t-17 2.5t-15 5t-6.5 9q0 5 2 11t2 12q0 11 -6 23.5t-20 12.5q-11 0 -15.5 -9t-4.5 -18
q0 -13 11 -28.5t22 -21.5q10 -6 17 -9.5t14.5 -5t17.5 -2t26 -0.5q18 0 36.5 5t33.5 15.5t24.5 25.5t9.5 35q0 22 -11.5 43.5t-25.5 41.5t-25.5 37t-11.5 28q0 16 10 23.5t26 7.5q7 0 12 -1t10 -3q3 -1 5 -9.5t5.5 -18t10.5 -17.5t20 -8q21 0 21 20z" />
    <glyph glyph-name="t" unicode="t" horiz-adv-x="222" 
d="M218 266q0 3 -15 4.5t-32 1.5q9 24 20 51.5t22.5 54t23 50.5t23.5 41q5 7 8.5 9t3.5 6t-5 4t-14.5 -9.5t-20 -22t-19.5 -25t-12 -18.5q-8 -15 -20 -36t-27 -41.5t-33 -38t-37 -25.5l-7 -3.5t-3 -6.5q0 -2 5.5 -3t12 -1.5t12 -2t5.5 -3.5q0 -1 -5.5 -14.5t-15 -34.5
t-22 -46.5t-26 -51t-27 -49t-24.5 -39.5q-7 -9 -7 -12q0 -5 4 -5q2 0 7 3.5t16 3.5q16 0 26 -3.5t24 -3.5q20 0 36.5 9.5t16.5 23.5q0 6 -4 6q-3 0 -10 -1.5t-13 -1.5q-13 0 -25 3t-25 4q48 42 77.5 98t51.5 113q29 1 41.5 3t12.5 9z" />
    <glyph glyph-name="u" unicode="u" horiz-adv-x="389" 
d="M68 71q0 16 15 46t33 60t33 54.5t15 31.5t-7 7q-1 0 -20 -6.5t-41 -15t-40.5 -16t-18.5 -10.5q0 -8 5 -8q4 0 11 2t14.5 4.5t14 5t9.5 2.5q-9 -19 -22 -38t-25 -39.5t-20 -41t-8 -42.5q0 -35 23 -51t55 -16q28 0 47 6.5t41 21.5l2 -2q-3 -5 -6.5 -10.5t-3.5 -10.5t5 -5
q7 0 12.5 3t14.5 3q14 0 26 -3t35 -3q11 0 19.5 4.5t8.5 9.5q0 6 -8 6q-4 0 -7.5 -1t-7.5 -1q-9 0 -15.5 3t-6.5 16q0 10 14 39t31.5 62.5t34.5 65t23 46.5q2 5 4.5 8.5t2.5 6.5q0 5 -8 5q-5 0 -22 -6t-35 -13.5t-32.5 -14.5t-14.5 -9q0 -6 5 -6t18.5 3.5t18.5 4.5
q-15 -26 -29 -53.5t-28 -52.5q-12 -21 -23.5 -40.5t-25.5 -33.5t-32.5 -22.5t-44.5 -8.5q-20 0 -29.5 14.5t-9.5 38.5z" />
    <glyph glyph-name="v" unicode="v" 
d="M14 84q0 -42 28 -63t66 -21q36 0 69 18t58.5 46.5t41 64t15.5 70.5q0 17 -4 34t-10 30.5t-12 22t-9 8.5t-3 -6q0 -3 3 -14t3 -45q0 -27 -9.5 -63.5t-27.5 -69t-43.5 -55.5t-57.5 -23q-56 0 -56 56q0 29 13 62t28 62t28 49t13 23q0 4 -8 4q-3 0 -17 -5t-29 -11.5
t-27 -13.5t-12 -11q0 -2 3.5 -3t6.5 -1q4 0 14.5 3.5l13.5 4.5l2 -2q-15 -17 -29.5 -33.5t-26 -34.5t-18.5 -38.5t-7 -44.5z" />
    <glyph glyph-name="w" unicode="w" horiz-adv-x="444" 
d="M0 67q0 -67 66 -67q29 0 54 17t42 39q6 -29 20 -42.5t43 -13.5q34 0 68 20t61 51.5t44 70t17 74.5q0 32 -9 51t-16 19q-4 0 -4 -4q0 -2 1.5 -15t1.5 -22q0 -32 -11.5 -71.5t-32.5 -74t-51 -58t-68 -23.5q-7 0 -9.5 6.5t-2.5 14.5q0 18 5.5 36t15 40.5t24 51.5t32.5 69
q7 15 13 23.5t6 13.5q0 7 -3 7q-4 0 -7.5 -1.5t-9.5 -3.5t-15 -3.5t-22 -1.5q-27 0 -48 -8.5t-21 -34.5q0 -6 5 -6q2 0 4.5 5t6.5 10.5t9 10.5t13 5q7 0 8.5 -4t1.5 -7q0 -6 -16 -45.5t-49 -102.5q-9 -13 -20 -26t-24 -24t-27.5 -18t-29.5 -7q-14 0 -19 6t-5 17
q0 20 13.5 49.5t32.5 59.5t39.5 57t35.5 42q5 5 10 9.5t5 7.5q0 5 -5 5q-4 0 -13.5 -2.5t-19.5 -2.5q-11 0 -21.5 2t-21.5 2q-9 0 -23 -4.5t-14 -16.5q0 -6 5 -6t10.5 4.5t10.5 4.5q10 0 10 -7q0 -2 -9 -14q-14 -18 -29 -37t-28 -39t-21.5 -42t-8.5 -46z" />
    <glyph glyph-name="x" unicode="x" 
d="M-42 25q0 -18 13 -21.5t27 -3.5q22 0 42.5 11t39 26.5t34.5 33.5t30 33q3 -17 7.5 -33t4.5 -33q0 -10 -1.5 -15t-3 -8t-3 -4.5t-1.5 -4.5q0 -5 5 -5q2 0 8 2.5t11 2.5q6 0 21.5 -3t26.5 -3q18 0 31 6.5t13 13.5q0 4 -6 4q-5 0 -9.5 -2t-9.5 -2q-4 0 -9 0.5t-8 3.5
q-8 8 -14 25t-11 37t-8.5 38.5t-5.5 29.5q10 13 23.5 28t28.5 28.5t30.5 25.5t27.5 20q13 8 24 8q12 0 12 5t-18 5t-36 -11t-35.5 -27t-33 -34t-28.5 -31q-5 19 -13 38.5t-20 35.5t-29 25.5t-40 9.5q-8 0 -18 -3t-18.5 -8t-14.5 -10.5t-6 -9.5q0 -6 4 -6q3 0 14.5 9.5
t32.5 9.5q20 0 32 -16t19 -38.5t11 -46t8 -38.5q-8 -10 -23.5 -27.5t-33.5 -35t-35.5 -30t-30.5 -12.5q-9 0 -13.5 3.5t-8 8t-7.5 8.5t-11 4q-6 0 -12 -5t-6 -12z" />
    <glyph glyph-name="y" unicode="y" horiz-adv-x="389" 
d="M212 78q-14 -21 -33.5 -55t-43.5 -72.5t-51 -77.5t-55.5 -70.5t-58 -51t-57.5 -19.5q-23 0 -36.5 7.5t-21 16t-11 16t-6.5 7.5q-5 0 -5 -6q0 -11 7 -21.5t18 -18.5t25 -13.5t28 -5.5q41 0 79.5 18.5t73.5 49t66 70t57 81.5t47.5 83t36.5 75q20 45 40 77.5t35.5 54.5
t25.5 34.5t10 17.5t-7 5q-4 0 -21.5 -19.5t-43 -48.5t-56 -63t-60.5 -63t-57.5 -48.5t-46.5 -19.5q-12 0 -18 9t-6 20q0 12 8.5 32t22 43.5t28.5 47.5t28.5 44.5t22 35t8.5 17.5q0 5 -7 5q-5 0 -13.5 -3.5t-19 -8.5t-21.5 -10t-21 -9q-35 -13 -44 -19t-9 -11t6 -5
q8 0 21 6.5t24 8.5q-11 -18 -26 -39t-28.5 -43.5t-22.5 -45.5t-9 -45q0 -26 14 -37t39 -11q21 0 36 4t30 13t32.5 24t44.5 37l2 -2v2z" />
    <glyph glyph-name="z" unicode="z" 
d="M81 54q40 20 71 48.5t56 57t44 53t34 38.5q9 7 9 11q0 6 -7 6t-19 -2t-36 -2q-6 0 -15 1t-20 4t-25 5t-31 2q-22 0 -42 -8t-35 -18.5t-24 -22.5t-9 -19q0 -3 3 -3q4 0 6.5 2.5l4.5 4.5q21 21 44 33.5t54 12.5q11 0 23.5 -1t26.5 -3q14 -3 27.5 -5.5t26.5 -2.5l2 -2
q-17 -6 -41 -24t-49.5 -41.5t-50.5 -49.5t-45 -50q-12 -13 -23 -25.5t-25 -23.5q-5 -4 -11 -9t-6 -12q0 -6 6 -6q2 0 5 2t10.5 4.5t20.5 4.5t34 2q16 0 30 -2.5t29 -5.5t32 -5.5t37 -2.5q16 0 27.5 9t19 21t11.5 24t4 18q0 7 -5 7q-4 0 -6.5 -6.5t-7.5 -15t-14 -15t-26 -6.5
q-13 0 -23.5 2.5t-23.5 5.5q-14 3 -31.5 5.5t-46.5 2.5v2z" />
    <glyph glyph-name="braceleft" unicode="{" horiz-adv-x="389" 
d="M444 596q-29 0 -55.5 -4.5t-50.5 -18.5t-46 -40t-41 -68l-76 -167q-11 -23 -22 -40.5t-25 -30t-33 -21.5t-45 -16q23 -7 33 -17.5t12 -25.5q2 -12 -3 -28.5t-14 -35.5l-77 -169q-11 -24 -16.5 -44.5t-4.5 -34.5q3 -28 28.5 -39.5t66.5 -11.5l4 10q-25 5 -37 15.5
t-14 31.5q-2 14 5 31.5t16 36.5l72 160q25 51 22 76q-3 33 -49 44v2h1q29 6 49.5 16.5t36 25t27.5 34t24 45.5l71 158q22 48 52 76.5t84 39.5z" />
    <glyph glyph-name="bar" unicode="|" horiz-adv-x="222" 
d="M98 0h26v588h-26v-588z" />
    <glyph glyph-name="braceright" unicode="}" horiz-adv-x="389" 
d="M-55 -216q29 0 55.5 4.5t50.5 18.5t45.5 40t41.5 68l76 167q10 23 21 40.5t25.5 30t33.5 21.5t45 16q-23 7 -33 17.5t-12 25.5q-2 12 3 28.5t14 35.5l77 169q11 24 16.5 44.5t4.5 34.5q-3 28 -28.5 39.5t-66.5 11.5l-4 -10q25 -5 37 -15.5t14 -31.5q2 -14 -5 -31.5
t-16 -36.5l-72 -160q-25 -51 -22 -76q3 -33 49 -44v-2h-1q-29 -6 -49.5 -16.5t-36 -25t-27.5 -34.5t-24 -45l-71 -158q-11 -24 -23.5 -43t-28.5 -33.5t-36.5 -24.5t-47.5 -15z" />
    <glyph glyph-name="asciitilde" unicode="~" horiz-adv-x="600" 
d="M472 201q-16 -24 -34 -44t-44 -20q-18 0 -41.5 10t-48.5 21t-49.5 20t-47.5 9q-44 0 -70 -24t-40 -52l31 -32q11 23 28 43.5t46 20.5q31 0 55.5 -9.5t46.5 -21.5t43.5 -20.5t45.5 -8.5q21 0 37 6.5t29 17t23.5 24t20.5 27.5z" />
    <glyph glyph-name="exclamdown" unicode="&#xa1;" horiz-adv-x="222" 
d="M16 -238q11 0 20 11.5t16.5 28t14 35t12.5 32.5q33 84 56 138t36.5 86t19.5 46t6 19t-1 5.5t-3 0.5q-5 0 -11 -9.5t-19 -35.5q-27 -54 -56 -108t-53.5 -100t-40.5 -80t-16 -46q0 -10 5.5 -16.5t13.5 -6.5zM230 214q13 0 23 8t10 25t-10 25t-23 8t-23 -8t-10 -25t10 -25
t23 -8z" />
    <glyph glyph-name="cent" unicode="&#xa2;" 
d="M119 104q-17 14 -28.5 36t-11.5 44q0 28 10.5 53t28.5 44.5t42.5 31.5t53.5 15zM81 -38l39 94q7 -2 14.5 -3t15.5 -1q24 0 45.5 8.5t40 22t34 31.5t26.5 37q2 2 3.5 5t1.5 7q0 9 -8 9q-4 0 -13.5 -13t-25 -29t-38.5 -29t-54 -13q-15 0 -26 5l99 235q17 0 31 -3.5
t14 -17.5q0 -15 -5.5 -21.5t-12.5 -8.5t-12.5 -4t-5.5 -8t5 -9.5t11.5 -6t13.5 -3t11 -0.5q11 0 20.5 5.5t16 14.5t10.5 20t4 21q0 17 -3.5 29t-17.5 12t-21 -1t-14 -1q-9 0 -18.5 1t-19.5 3l33 78h-20l-32 -78q-5 0 -10 1t-10 1q-31 0 -63 -13.5t-58 -37t-42.5 -54.5
t-16.5 -65q0 -45 20 -76.5t58 -44.5l-41 -99h21z" />
    <glyph glyph-name="sterling" unicode="&#xa3;" 
d="M279 348q0 -15 -6 -24t-13.5 -14t-13.5 -7.5t-6 -4.5q0 -6 5 -6q23 0 40.5 16.5t17.5 36.5q0 16 -9 28t-22.5 20t-29.5 11.5t-29 3.5q-38 0 -62.5 -15t-41.5 -40t-29 -57.5t-26 -67.5q-44 -1 -58.5 -5t-13.5 -16q0 -7 3 -7q9 8 22 9t43 1q-10 -32 -21 -63t-28 -60
q-10 -18 -19.5 -29.5t-17 -20t-12 -14t-4.5 -11.5q0 -9 6.5 -12.5t14.5 -3.5q19 0 41.5 6t46.5 6q26 0 50 -4t50 -4q22 0 43 7t37 19.5t26 31.5t10 43q0 28 -17 45t-45 17q-18 0 -37 -8t-19 -19q0 -6 4 -6q3 0 5 1.5t6 4t12 4t23 1.5q23 0 36.5 -10.5t13.5 -35.5
q0 -36 -21.5 -49.5t-53.5 -13.5q-8 0 -18 2t-22 4q-11 2 -23.5 4t-23.5 2q-25 0 -45.5 -5.5t-37.5 -12.5q-16 -7 -26 -11.5t-15 -4.5q-7 0 -7 6q0 3 6 6.5t14 9.5q50 39 76 80t38 98q35 0 53 2t18 14q0 5 -1 8q-8 -5 -20.5 -5.5t-43.5 -0.5q9 22 17 50t20 53t31 42t49 17
q21 0 40.5 -9t19.5 -33z" />
    <glyph glyph-name="currency" unicode="&#xa4;" 
d="M290 345l-33 -32q-40 32 -90 32t-90 -32l-33 32l-22 -22l31 -32q-17 -20 -24 -43t-7 -48t7 -48t24 -43l-31 -32l22 -22l33 32q40 -32 90 -32t90 32l33 -32l22 22l-31 32q17 20 24 43t7 48t-7 48t-24 43l31 32zM167 317q24 0 44.5 -9.5t36 -25.5t24 -37.5t8.5 -44.5
t-8.5 -44.5t-24 -37.5t-36 -25.5t-44.5 -9.5t-44.5 9.5t-36 25.5t-24 37.5t-8.5 44.5t8.5 44.5t24 37.5t36 25.5t44.5 9.5z" />
    <glyph glyph-name="yen" unicode="&#xa5;" 
d="M265 158q39 0 48.5 4t9.5 12q0 5 -1 8q-8 -5 -19 -5.5t-32 -0.5h-77q10 22 19 38t20 37h76q39 0 48.5 4t9.5 12q0 5 -1 8q-8 -5 -19 -5.5t-32 -0.5h-71q5 9 11.5 17t12.5 16q12 15 27 30.5t30.5 28t32 21t33.5 8.5q21 0 29 -3.5t12 -3.5q2 0 2.5 1l0.5 1q0 8 -16.5 15.5
t-30.5 7.5q-30 0 -61.5 -24.5t-57.5 -54t-43.5 -54t-21.5 -24.5q-3 0 -3.5 5.5t-2.5 11.5q-2 11 -9 34.5t-20.5 47t-34 41t-50.5 17.5q-21 0 -36.5 -6.5t-25 -15t-14.5 -17.5t-5 -14t3 -5q2 0 9 11t18 16q9 5 20.5 9t28.5 4q31 0 48 -23t24 -58l1.5 -9t6.5 -31h-60
q-20 0 -31.5 -1t-17.5 -3t-8 -5t-2 -7q0 -5 1 -8q8 5 19 5.5t33 0.5h70q3 -14 3.5 -21.5t0.5 -15.5q0 -9 -2.5 -17t-8.5 -21h-66q-20 0 -31.5 -1t-17.5 -3t-8 -5t-2 -7q0 -5 1 -8q8 5 19 5.5t33 0.5h62l-21 -42q-23 -44 -40 -71t-27 -27q-8 0 -15 -1.5t-7 -8.5q0 -8 20 -8
q5 0 11 1.5t13 1.5q11 0 23 -1.5t26 -1.5q9 0 22.5 8t13.5 19q0 5 -5 5t-8.5 -5t-13.5 -5q-6 0 -10.5 0.5t-4.5 5.5q0 3 6 18.5t15 35t19 40.5t18 36h81z" />
    <glyph glyph-name="brokenbar" unicode="&#xa6;" horiz-adv-x="222" 
d="M98 0h26v220h-26v-220zM98 368h26v220h-26v-220z" />
    <glyph glyph-name="section" unicode="&#xa7;" horiz-adv-x="444" 
d="M123 255q0 38 24 62t65 24q13 0 25.5 -1t24.5 -5q12 -21 27 -43t28.5 -45t23 -47.5t9.5 -50.5q0 -22 -8.5 -37.5t-22 -25.5t-32 -14.5t-37.5 -4.5q-9 0 -18 2.5t-17 5.5q-9 10 -24.5 32t-30.5 49t-26 53.5t-11 45.5zM87 232q0 -44 23 -88t50.5 -86.5t50.5 -82t23 -75.5
q0 -48 -30.5 -77t-77.5 -29q-29 0 -48.5 13.5t-19.5 43.5q0 17 3 32t3 31q0 11 -7 18.5t-21 7.5q-10 0 -16.5 -6t-10.5 -15t-5.5 -19.5t-1.5 -18.5q0 -23 10.5 -41.5t28 -32t38.5 -20.5t42 -7q69 0 112 37.5t43 108.5q0 38 -17.5 70t-37.5 61l1 2q15 -6 36 -6q58 0 96 32.5
t38 92.5q0 43 -22.5 85.5t-50 83t-50 78t-22.5 71.5q0 47 27.5 76.5t75.5 29.5q12 0 24.5 -2.5t23.5 -8.5t18 -15.5t7 -23.5q0 -17 -4.5 -30.5t-4.5 -29.5q0 -34 33 -34q9 0 15 5t10 12.5t5.5 16t1.5 15.5q0 26 -10.5 46.5t-28 34.5t-40.5 21t-48 7q-32 0 -58.5 -11
t-46.5 -30t-31 -46t-11 -58q0 -33 15.5 -64t32.5 -57q-11 3 -23 4t-24 1q-57 0 -88 -33.5t-31 -89.5z" />
    <glyph glyph-name="dieresis" unicode="&#xa8;" horiz-adv-x="222" 
d="M243 400q-15 0 -24.5 -11t-9.5 -25t9.5 -25t24.5 -11t24.5 11t9.5 25t-9.5 25t-24.5 11zM81 400q-15 0 -24.5 -11t-9.5 -25t9.5 -25t24.5 -11t24.5 11t9.5 25t-9.5 25t-24.5 11z" />
    <glyph glyph-name="copyright" unicode="&#xa9;" horiz-adv-x="800" 
d="M400 616q-63 0 -117.5 -24.5t-95.5 -66.5t-64.5 -98t-23.5 -119t23.5 -119t64.5 -98t95.5 -66.5t117.5 -24.5t117.5 24.5t95.5 66.5t64.5 98t23.5 119t-23.5 119t-64.5 98t-95.5 66.5t-117.5 24.5zM400 584q53 0 100.5 -22.5t83 -61t56.5 -88.5t21 -104t-21 -104
t-56.5 -88.5t-83 -61t-100.5 -22.5t-100.5 22.5t-83 61t-56.5 88.5t-21 104t21 104t56.5 88.5t83 61t100.5 22.5zM537 230q-6 -15 -14.5 -29t-21.5 -25t-31.5 -17.5t-42.5 -6.5q-37 0 -63.5 12.5t-44 34.5t-25.5 52.5t-8 66.5q0 33 8 61t24.5 49t42 33t59.5 12
q28 0 47.5 -7.5t31.5 -19.5t17.5 -27t6.5 -29h12v62q0 12 -18 19q-18 5 -38 10.5t-55 5.5q-49 0 -85.5 -16.5t-60.5 -42t-36 -55.5t-12 -58q0 -49 15.5 -82.5t42 -54.5t60.5 -30.5t71 -9.5q32 0 56 4.5t38 9.5q11 4 16.5 6.5t5.5 10.5l15 61h-13z" />
    <glyph glyph-name="ordfeminine" unicode="&#xaa;" horiz-adv-x="233" 
d="M211 244q17 0 24 1.5t14 9.5q7 7 9 11.5t2 9.5q0 4 -6 4q-2 0 -3.5 -3t-3.5 -6t-7 -6t-14 -3q-13 0 -13 9q0 13 8 30t19 35t22.5 34.5t19.5 27.5q-8 7 -25 8.5t-38 1.5q-26 0 -56 -9.5t-55.5 -25.5t-42.5 -36.5t-17 -41.5q0 -29 17 -40t46 -11q14 0 25 2t23 9
q0 -3 -1 -4.5t-1 -4.5q0 -2 5 -2h49zM90 298q0 19 14.5 35.5t36 29t45.5 20t42 7.5q4 0 6.5 -0.5t5.5 -0.5q-11 -14 -23.5 -31t-25.5 -47q-3 -6 -7.5 -14.5t-12 -16t-18 -13t-26.5 -5.5q-37 0 -37 36z" />
    <glyph glyph-name="guillemotleft" unicode="&#xab;" 
d="M241 21q2 0 4 1t2 6q0 3 -7.5 19.5t-17 37t-18 38.5t-10.5 24q4 3 22.5 19t39.5 35t37.5 36.5t16.5 23.5q0 8 -4 8q-5 0 -26.5 -15t-49 -35t-55.5 -40.5t-47 -30.5q6 -5 23 -25.5t36 -43t35 -40.5t19 -18zM129 21q2 0 4 1t2 6q0 3 -7.5 19.5t-17 37t-18 38.5t-10.5 24
q4 3 22.5 19t39.5 35t37.5 36.5t16.5 23.5q0 8 -4 8q-5 0 -26.5 -15t-49 -35t-55.5 -40.5t-47 -30.5q6 -5 23 -25.5t36 -43t35 -40.5t19 -18z" />
    <glyph glyph-name="logicalnot" unicode="&#xac;" horiz-adv-x="600" 
d="M419 60h26v154h-290v-26h264v-128z" />
    <glyph glyph-name="registered" unicode="&#xae;" horiz-adv-x="800" 
d="M400 616q-63 0 -117.5 -24.5t-95.5 -66.5t-64.5 -98t-23.5 -119t23.5 -119t64.5 -98t95.5 -66.5t117.5 -24.5t117.5 24.5t95.5 66.5t64.5 98t23.5 119t-23.5 119t-64.5 98t-95.5 66.5t-117.5 24.5zM400 584q53 0 100.5 -22.5t83 -61t56.5 -88.5t21 -104t-21 -104
t-56.5 -88.5t-83 -61t-100.5 -22.5t-100.5 22.5t-83 61t-56.5 88.5t-21 104t21 104t56.5 88.5t83 61t100.5 22.5zM257 465q17 -2 26 -3.5t13 -5.5t4.5 -13t0.5 -25v-212q0 -16 -0.5 -24.5t-4.5 -12.5t-13 -5.5t-26 -2.5v-14h140v14q-17 1 -26 2.5t-13 5.5t-4.5 12.5
t-0.5 24.5v88h49q24 -36 41 -63t29.5 -46t23 -28.5t21.5 -9.5h49v7q-14 7 -34 29t-39 48l-52 70q31 11 52.5 35t21.5 60q0 21 -9.5 36t-24.5 25t-34 14.5t-38 4.5h-152v-11zM353 462h39q29 0 50 -16t21 -54q0 -40 -16.5 -62t-50.5 -22h-43v154z" />
    <glyph glyph-name="macron" unicode="&#xaf;" horiz-adv-x="222" 
d="M257 339q9 0 16.5 9t7.5 17t-6 11t-12 3h-209q-11 0 -18 -5.5t-7 -22.5q0 -12 21 -12h207z" />
    <glyph glyph-name="macron" unicode="&#x2c9;" horiz-adv-x="222" 
d="M257 339q9 0 16.5 9t7.5 17t-6 11t-12 3h-209q-11 0 -18 -5.5t-7 -22.5q0 -12 21 -12h207z" />
    <glyph glyph-name="degree" unicode="&#xb0;" horiz-adv-x="400" 
d="M220 389q15 0 28 -6t23 -16.5t15.5 -24t5.5 -28.5q0 -30 -21 -52.5t-51 -22.5t-51 22.5t-21 52.5q0 15 5.5 28.5t15.5 24t23 16.5t28 6zM220 408q-20 0 -37 -7.5t-29.5 -20t-20 -30t-7.5 -36.5q0 -20 7.5 -37.5t20 -30t29.5 -20t37 -7.5q40 0 67.5 27.5t27.5 67.5
q0 19 -7.5 36.5t-20 30t-30 20t-37.5 7.5z" />
    <glyph glyph-name="plusminus" unicode="&#xb1;" horiz-adv-x="600" 
d="M287 184h-132v-26h132v-106h26v106h132v26h-132v106h-26v-106zM155 0h290v26h-290v-26z" />
    <glyph glyph-name="twosuperior" unicode="&#xb2;" horiz-adv-x="199" 
d="M45 169q7 0 13.5 -1t15.5 -2t21.5 -2t32.5 -1q8 0 17 3.5t16.5 9t12.5 10.5t5 8t-2 3q-3 0 -17 -6t-35 -6q-15 0 -28.5 3.5t-27.5 3.5q-13 0 -24.5 -3t-18.5 -7l-3 2v-1q11 19 41 39l61.5 41t55.5 43t24 45q0 13 -6.5 23.5t-16.5 18t-23 11.5t-26 4q-29 0 -50 -13
t-21 -42q0 -8 1.5 -15t6.5 -7q10 0 10 7q0 23 9 37.5t35 14.5q20 0 32.5 -8t12.5 -30q0 -13 -11.5 -29t-27 -31.5t-32.5 -29.5t-28 -22q-10 -7 -22.5 -18t-24 -22t-19 -20.5t-7.5 -13.5q0 -3 4 -3q7 0 16 3t28 3z" />
    <glyph glyph-name="threesuperior" unicode="&#xb3;" horiz-adv-x="199" 
d="M174 275q0 -17 -6 -33.5t-17 -30t-27.5 -22t-37.5 -8.5q-31 0 -44 11t-15 31q0 4 -4 5t-7 1q-8 0 -10.5 -1.5t-2.5 -4.5q0 -5 5.5 -15t11.5 -16q17 -19 32.5 -24t46.5 -5q20 0 39 7t34 19t24.5 28.5t9.5 35.5q0 18 -9 34t-23 27v3q18 2 32 14.5t14 29.5q0 12 -6.5 21
t-16.5 15t-22 8.5t-23 2.5q-31 0 -55 -19.5t-24 -48.5q0 -4 1 -8.5t5 -4.5q5 0 8.5 3t3.5 6q0 4 4.5 13t12.5 18t19.5 16t25.5 7q35 0 35 -26q0 -19 -19 -33q-14 -9 -24.5 -9.5t-10.5 -5.5q0 -4 4 -4q2 0 4.5 0.5t5.5 0.5q17 0 21.5 -12.5t4.5 -25.5z" />
    <glyph glyph-name="acute" unicode="&#xb4;" horiz-adv-x="222" 
d="M272 470q0 11 -8 19.5t-16 8.5q-16 0 -24.5 -10t-13 -23.5t-7.5 -28.5t-8 -25q-11 -22 -24 -36.5t-25 -24t-20 -15t-8 -8.5q0 -7 7 -7q6 0 30 13.5t50 34.5t46.5 48t20.5 54z" />
    <glyph glyph-name="mu" unicode="&#xb5;" horiz-adv-x="389" 
d="M250 37q0 10 14 39t31.5 62.5t34.5 65t23 46.5q2 5 4.5 8.5t2.5 6.5q0 5 -8 5q-5 0 -22 -6t-35 -13.5t-32.5 -14.5t-14.5 -9q0 -6 5 -6t18.5 3.5t18.5 4.5q-15 -26 -29 -53.5t-28 -52.5q-12 -21 -23.5 -40.5t-25.5 -33.5t-32.5 -22.5t-44.5 -8.5q-20 0 -29.5 14.5
t-9.5 38.5q0 16 15 46t33 60t33 54.5t15 31.5t-7 7q-1 0 -20 -6.5t-41 -15t-40.5 -16t-18.5 -10.5q0 -8 5 -8q4 0 11 2t14.5 4.5t14 5t9.5 2.5q-3 -6 -14 -25t-25 -42.5t-27 -46.5t-20 -35q-23 -42 -46.5 -89.5t-53.5 -108.5q-21 -42 -39 -66.5t-32.5 -37t-24 -16
t-12.5 -3.5q-13 0 -13 -7t9 -7q15 0 31 7t30.5 16.5t25.5 19.5t16 16q30 34 54 68.5t41 64.5t28 52.5t15 33.5q11 -11 26.5 -16.5t33.5 -5.5q28 0 47 6.5t41 21.5l2 -2q-3 -5 -6.5 -10.5t-3.5 -10.5t5 -5q7 0 12.5 3t14.5 3q14 0 26 -3t35 -3q11 0 19.5 4.5t8.5 9.5
q0 6 -8 6q-4 0 -7.5 -1t-7.5 -1q-9 0 -15.5 3t-6.5 16z" />
    <glyph glyph-name="mu" unicode="&#x3bc;" horiz-adv-x="389" 
d="M250 37q0 10 14 39t31.5 62.5t34.5 65t23 46.5q2 5 4.5 8.5t2.5 6.5q0 5 -8 5q-5 0 -22 -6t-35 -13.5t-32.5 -14.5t-14.5 -9q0 -6 5 -6t18.5 3.5t18.5 4.5q-15 -26 -29 -53.5t-28 -52.5q-12 -21 -23.5 -40.5t-25.5 -33.5t-32.5 -22.5t-44.5 -8.5q-20 0 -29.5 14.5
t-9.5 38.5q0 16 15 46t33 60t33 54.5t15 31.5t-7 7q-1 0 -20 -6.5t-41 -15t-40.5 -16t-18.5 -10.5q0 -8 5 -8q4 0 11 2t14.5 4.5t14 5t9.5 2.5q-3 -6 -14 -25t-25 -42.5t-27 -46.5t-20 -35q-23 -42 -46.5 -89.5t-53.5 -108.5q-21 -42 -39 -66.5t-32.5 -37t-24 -16
t-12.5 -3.5q-13 0 -13 -7t9 -7q15 0 31 7t30.5 16.5t25.5 19.5t16 16q30 34 54 68.5t41 64.5t28 52.5t15 33.5q11 -11 26.5 -16.5t33.5 -5.5q28 0 47 6.5t41 21.5l2 -2q-3 -5 -6.5 -10.5t-3.5 -10.5t5 -5q7 0 12.5 3t14.5 3q14 0 26 -3t35 -3q11 0 19.5 4.5t8.5 9.5
q0 6 -8 6q-4 0 -7.5 -1t-7.5 -1q-9 0 -15.5 3t-6.5 16z" />
    <glyph glyph-name="paragraph" unicode="&#xb6;" horiz-adv-x="600" 
d="M713 616h-245q-45 0 -81.5 -8.5t-66 -23t-52 -33t-38.5 -39.5q-20 -25 -36 -52.5t-28 -54.5t-18.5 -52.5t-6.5 -46.5q0 -47 32 -74t104 -27l-212 -451h50l391 832h59l-391 -832h50l347 739q16 34 25 53t20 28.5t30.5 12.5t56.5 7z" />
    <glyph glyph-name="periodcentered" unicode="&#xb7;" horiz-adv-x="222" 
d="M83 178q-13 0 -23 -8t-10 -25t10 -25t23 -8t23 8t10 25t-10 25t-23 8z" />
    <glyph glyph-name="cedilla" unicode="&#xb8;" horiz-adv-x="222" 
d="M21 -1q-2 -5 -8.5 -14.5t-13.5 -20.5t-12 -20.5t-5 -12.5q0 -10 13 -10q9 0 17.5 3t16.5 3q17 0 32 -9.5t15 -29.5q0 -15 -8 -24.5t-19.5 -14t-25.5 -6t-26 -1.5q-16 0 -32 3t-29.5 7t-23.5 7t-13 3q-7 0 -7 -7q0 -6 12.5 -13t32 -12.5t43 -9.5t44.5 -4q16 0 33.5 3.5
t31 12t22.5 21.5t9 33q0 34 -21 50.5t-53 16.5q-8 0 -16 -1.5t-16 -3.5l30 51h-23z" />
    <glyph glyph-name="onesuperior" unicode="&#xb9;" horiz-adv-x="199" 
d="M69 165q7 0 13.5 -1t13.5 -1q11 0 22.5 2.5t11.5 11.5q0 8 -3 8q-5 0 -8.5 -2t-10.5 -2q-12 0 -12 5q0 4 10.5 27t25.5 54t32 65l30 60q2 5 4 9t2 7q0 2 -1.5 2.5l-1.5 0.5q-1 0 -11.5 -3.5t-23 -7.5t-22.5 -8.5t-10 -5.5q0 -5 4 -5q2 0 9 1.5t20 1.5q0 -2 -0.5 -4.5
t-2.5 -6.5l-5.5 -11l-9.5 -19l-57 -116q-2 -5 -6 -12.5t-9.5 -15t-12 -13t-12.5 -5.5q-14 0 -14 -11q0 -5 3.5 -6t6.5 -1q5 0 12 1t13 1z" />
    <glyph glyph-name="ordmasculine" unicode="&#xba;" horiz-adv-x="200" 
d="M43 304q0 -23 16.5 -41.5t49.5 -18.5q18 0 39 6t39 18.5t30 32t12 47.5q0 23 -16.5 41.5t-49.5 18.5q-19 0 -40 -6.5t-39 -20t-29.5 -33t-11.5 -44.5zM71 290q0 15 8 32.5t21 32.5t30 25t35 10q22 0 29 -9t7 -18q0 -15 -8 -32.5t-21.5 -32.5t-30 -25.5t-34.5 -10.5
q-22 0 -29 9.5t-7 18.5z" />
    <glyph glyph-name="guillemotright" unicode="&#xbb;" 
d="M328 142q-6 5 -23 25.5t-36 43t-35 40.5t-19 18q-2 0 -4 -1t-2 -6q0 -3 7.5 -19.5t17 -37t18 -38.5t10.5 -24q-4 -3 -22.5 -19t-39.5 -35t-37.5 -36.5t-16.5 -23.5q0 -8 4 -8q5 0 26.5 15t49 35t55.5 40t47 31zM216 142q-6 5 -23 25.5t-36 43t-35 40.5t-19 18q-2 0 -4 -1
t-2 -6q0 -3 7.5 -19.5t17 -37t18 -38.5t10.5 -24q-4 -3 -22.5 -19t-39.5 -35t-37.5 -36.5t-16.5 -23.5q0 -8 4 -8q5 0 26.5 15t49 35t55.5 40t47 31z" />
    <glyph glyph-name="onequarter" unicode="&#xbc;" horiz-adv-x="499" 
d="M4 0h33l468 408h-33zM57 165q7 0 13.5 -1t13.5 -1q11 0 22.5 2.5t11.5 11.5q0 8 -3 8q-5 0 -8.5 -2t-10.5 -2q-12 0 -12 5q0 4 10.5 27t25.5 54t32 65l30 60q2 5 4 9t2 7q0 2 -1.5 2.5l-1.5 0.5q-1 0 -11.5 -3.5t-23 -7.5t-22.5 -8.5t-10 -5.5q0 -5 4 -5q2 0 9 1.5
t20 1.5q0 -2 -0.5 -4.5t-2.5 -6.5l-5.5 -11l-9.5 -19l-57 -116q-2 -5 -6 -12.5t-9.5 -15t-12 -13t-12.5 -5.5q-14 0 -14 -11q0 -5 3.5 -6t6.5 -1q5 0 12 1t13 1zM449 245q-12 0 -28 -8.5t-32 -20t-30 -24.5t-22 -22q-17 -19 -37.5 -36t-38 -30.5t-29.5 -23.5t-12 -15
q0 -4 6 -4q6 2 12.5 4.5t13.5 2.5q49 0 65.5 -3t16.5 -12q0 -6 -3.5 -14t-8.5 -15t-11 -11.5t-12 -4.5q-2 0 -5.5 -1t-3.5 -3q0 -4 6 -4q8 0 14.5 1t14.5 1q4 0 12 -1t16 -1q10 0 17 3t7 9q0 5 -2 5q-4 0 -8.5 -4.5t-10.5 -4.5q-2 0 -5 1.5t-3 3.5q0 4 3 13.5t7 16.5
q5 10 10.5 11.5t15.5 1.5q17 0 34 6.5t17 13.5q0 3 -5 3q-7 0 -14.5 -4.5t-20.5 -4.5q-5 0 -10.5 2t-5.5 7q0 2 1 4l2 4l8.5 17t14.5 29.5t17 35t16.5 34t12.5 26.5t5 12q0 4 -7 4zM409 217q4 0 7.5 -1t3.5 -4l-5 -10.5t-13 -26t-17.5 -34.5l-18.5 -37q-4 -8 -8.5 -16.5
t-15.5 -8.5q-7 0 -17 1.5t-36 1.5q-1 0 -5.5 -0.5t-10.5 -1.5t-11.5 -1.5t-9.5 -1.5l-1 5q5 5 30.5 22t58.5 54q23 25 42 42t27 17z" />
    <glyph glyph-name="onehalf" unicode="&#xbd;" horiz-adv-x="499" 
d="M-31 0h33l468 408h-33zM305 7q7 0 13.5 -1t15.5 -2t21.5 -2t32.5 -1q8 0 17 3.5t16.5 9t12.5 10.5t5 8t-2 3q-3 0 -17 -6t-35 -6q-15 0 -28.5 3.5t-27.5 3.5q-13 0 -24.5 -3t-18.5 -7l-3 2v-1q11 19 41 39l61.5 41t55.5 43t24 45q0 13 -6.5 23.5t-16.5 18t-23 11.5t-26 4
q-29 0 -50 -13t-21 -42q0 -8 1.5 -15t6.5 -7q10 0 10 7q0 23 9 37.5t35 14.5q20 0 32.5 -8t12.5 -30q0 -13 -11.5 -29t-27 -31.5t-32.5 -29.5t-28 -22q-10 -7 -22.5 -18t-24 -22t-19 -20.5t-7.5 -13.5q0 -3 4 -3q7 0 16 3t28 3zM43 165q7 0 13.5 -1t13.5 -1q11 0 22.5 2.5
t11.5 11.5q0 8 -3 8q-5 0 -8.5 -2t-10.5 -2q-12 0 -12 5q0 4 10.5 27t25.5 54t32 65l30 60q2 5 4 9t2 7q0 2 -1.5 2.5l-1.5 0.5q-1 0 -11.5 -3.5t-23 -7.5t-22.5 -8.5t-10 -5.5q0 -5 4 -5q2 0 9 1.5t20 1.5q0 -2 -0.5 -4.5t-2.5 -6.5l-5.5 -11l-9.5 -19l-57 -116
q-2 -5 -6 -12.5t-9.5 -15t-12 -13t-12.5 -5.5q-14 0 -14 -11q0 -5 3.5 -6t6.5 -1q5 0 12 1t13 1z" />
    <glyph glyph-name="threequarters" unicode="&#xbe;" horiz-adv-x="499" 
d="M28 0h33l468 408h-33zM468 245q-12 0 -28 -8.5t-32 -20t-30 -24.5t-22 -22q-17 -19 -37.5 -36t-38 -30.5t-29.5 -23.5t-12 -15q0 -4 6 -4q6 2 12.5 4.5t13.5 2.5q49 0 65.5 -3t16.5 -12q0 -13 -12 -25t-23 -20q-2 0 -5.5 -1t-3.5 -3q0 -4 6 -4q8 0 14.5 1t14.5 1
q4 0 12 -1t16 -1q10 0 17 3t7 9q0 5 -2 5q-4 0 -8.5 -4.5t-10.5 -4.5q-2 0 -5 1.5t-3 3.5q0 4 3 13.5t7 16.5q5 10 10.5 11.5t15.5 1.5q17 0 34 6.5t17 13.5q0 3 -5 3q-7 0 -14.5 -4.5t-20.5 -4.5q-5 0 -10.5 2t-5.5 7q0 2 1 4l2 4l8.5 17t14.5 29.5t17 35t16.5 34
t12.5 26.5t5 12q0 4 -7 4zM428 217q4 0 7.5 -1t3.5 -4l-5 -10.5t-13 -26t-17.5 -34.5l-18.5 -37q-4 -8 -8.5 -16.5t-15.5 -8.5q-7 0 -17 1.5t-36 1.5q-1 0 -5.5 -0.5t-10.5 -1.5t-11.5 -1.5t-9.5 -1.5l-1 5q5 5 30.5 22t58.5 54q23 25 42 42t27 17zM174 275q0 -17 -6 -33.5
t-17 -30t-27.5 -22t-37.5 -8.5q-31 0 -44 11t-15 31q0 4 -4 5t-7 1q-8 0 -10.5 -1.5t-2.5 -4.5q0 -5 5.5 -15t11.5 -16q17 -19 32.5 -24t46.5 -5q20 0 39 7t34 19t24.5 28.5t9.5 35.5q0 18 -9 34t-23 27v3q18 2 32 14.5t14 29.5q0 12 -6.5 21t-16.5 15t-22 8.5t-23 2.5
q-31 0 -55 -19.5t-24 -48.5q0 -4 1 -8.5t5 -4.5q5 0 8.5 3t3.5 6q0 4 4.5 13t12.5 18t19.5 16t25.5 7q35 0 35 -26q0 -19 -19 -33q-14 -9 -24.5 -9.5t-10.5 -5.5q0 -4 4 -4q2 0 4.5 0.5t5.5 0.5q17 0 21.5 -12.5t4.5 -25.5z" />
    <glyph glyph-name="questiondown" unicode="&#xbf;" 
d="M183 -111q0 17 -11.5 28.5t-28.5 11.5q-18 0 -30.5 -13.5t-12.5 -20.5q0 -5 5 -5q4 0 13.5 8.5t25.5 8.5q13 0 13 -20q0 -15 -12.5 -32t-30 -31.5t-36.5 -24t-32 -9.5q-11 0 -19 7.5t-8 20.5q0 19 14.5 44.5t36.5 53.5t48 58t48 58.5t36.5 53.5t14.5 44t-8 34t-37 15
q-19 0 -32.5 -13t-13.5 -30q0 -3 0.5 -6.5t5.5 -3.5q6 0 9 5.5t6 12t9 12t18 5.5q14 0 19.5 -9.5t5.5 -20.5q0 -18 -17 -39t-42 -44.5t-55 -49t-55 -52.5t-42 -55.5t-17 -57.5q0 -34 23 -47.5t53 -13.5q23 0 47.5 9t44 24.5t32 37t12.5 46.5zM250 214q13 0 23 8t10 25
t-10 25t-23 8t-23 -8t-10 -25t10 -25t23 -8z" />
    <glyph glyph-name="Agrave" unicode="&#xc0;" horiz-adv-x="722" 
d="M779 588q-25 -4 -47 -10.5t-44 -18.5q-49 -27 -93 -70.5t-84 -93.5t-75.5 -103t-67.5 -99q-18 -26 -41 -56.5t-50.5 -57t-59 -44t-66.5 -17.5q-16 0 -27 2.5t-19 4.5q-33 10 -49 26.5t-22.5 32.5t-8 28t-6.5 12t-5.5 -2.5t-0.5 -7.5q0 -17 10.5 -39.5t22.5 -35.5
q27 -26 53.5 -32.5t61.5 -6.5q45 0 85.5 20t75.5 50t64.5 65.5t51.5 67.5q3 5 8 12.5t10.5 14t11.5 11.5t12 5q29 0 55 -4t45 -6l10 -2.5t6 -6.5q0 -6 -3 -14.5t-5 -12.5q-3 -13 -15 -39t-27.5 -54t-32 -54t-29.5 -39q-3 -3 -3 -7q0 -5 8 -5q3 0 10 2.5t24 2.5q18 0 29 -3.5
t31 -3.5q8 0 15 0.5t13 3.5q11 6 19 14t8 10q0 6 -5 6q-2 0 -12.5 -8t-21.5 -8q-23 0 -23 24q0 4 3.5 12.5t7.5 19.5q1 4 7.5 15.5t18 38t28 71t37.5 116.5q7 24 18 62t25 77t30 73.5t34 52.5zM670 588q-30 -11 -62 -17t-65 -6q-32 0 -60.5 5t-56.5 11t-55 10.5t-54 4.5
q-39 0 -81.5 -13.5t-78 -39t-58 -61.5t-22.5 -80q0 -13 3 -26.5t7.5 -24t10 -17.5t9.5 -7t4 2q0 4 -8 21t-8 45q0 37 15 67t40.5 51t57.5 32t67 11q25 0 50 -5t51 -11t51.5 -10.5t50.5 -4.5q26 0 50 3q25 3 49 10t44 15t34 16.5t19 14.5zM633 340q-5 -14 -9.5 -28t-9.5 -28
q-5 -13 -8.5 -21.5t-20.5 -8.5q-5 0 -11.5 1.5t-16.5 3.5t-22 3.5t-27 1.5q-9 0 -15.5 0.5t-6.5 2.5q0 5 4 13q5 10 14 25.5t24.5 40t41 59.5t63.5 84q10 12 24 26t30 26t34 20t35 9q-6 -7 -13.5 -14.5t-15.5 -18.5q-37 -51 -58.5 -101.5t-35.5 -95.5zM632 778
q0 -27 20.5 -54t46.5 -48t50 -34.5t30 -13.5q7 0 7 7q0 3 -8 8.5t-20 15t-25.5 24t-23.5 36.5q-5 10 -8 25t-7.5 28.5t-13 23.5t-24.5 10q-8 0 -16 -8.5t-8 -19.5z" />
    <glyph glyph-name="Aacute" unicode="&#xc1;" horiz-adv-x="722" 
d="M779 588q-25 -4 -47 -10.5t-44 -18.5q-49 -27 -93 -70.5t-84 -93.5t-75.5 -103t-67.5 -99q-18 -26 -41 -56.5t-50.5 -57t-59 -44t-66.5 -17.5q-16 0 -27 2.5t-19 4.5q-33 10 -49 26.5t-22.5 32.5t-8 28t-6.5 12t-5.5 -2.5t-0.5 -7.5q0 -17 10.5 -39.5t22.5 -35.5
q27 -26 53.5 -32.5t61.5 -6.5q45 0 85.5 20t75.5 50t64.5 65.5t51.5 67.5q3 5 8 12.5t10.5 14t11.5 11.5t12 5q29 0 55 -4t45 -6l10 -2.5t6 -6.5q0 -6 -3 -14.5t-5 -12.5q-3 -13 -15 -39t-27.5 -54t-32 -54t-29.5 -39q-3 -3 -3 -7q0 -5 8 -5q3 0 10 2.5t24 2.5q18 0 29 -3.5
t31 -3.5q8 0 15 0.5t13 3.5q11 6 19 14t8 10q0 6 -5 6q-2 0 -12.5 -8t-21.5 -8q-23 0 -23 24q0 4 3.5 12.5t7.5 19.5q1 4 7.5 15.5t18 38t28 71t37.5 116.5q7 24 18 62t25 77t30 73.5t34 52.5zM670 588q-30 -11 -62 -17t-65 -6q-32 0 -60.5 5t-56.5 11t-55 10.5t-54 4.5
q-39 0 -81.5 -13.5t-78 -39t-58 -61.5t-22.5 -80q0 -13 3 -26.5t7.5 -24t10 -17.5t9.5 -7t4 2q0 4 -8 21t-8 45q0 37 15 67t40.5 51t57.5 32t67 11q25 0 50 -5t51 -11t51.5 -10.5t50.5 -4.5q26 0 50 3q25 3 49 10t44 15t34 16.5t19 14.5zM633 340q-5 -14 -9.5 -28t-9.5 -28
q-5 -13 -8.5 -21.5t-20.5 -8.5q-5 0 -11.5 1.5t-16.5 3.5t-22 3.5t-27 1.5q-9 0 -15.5 0.5t-6.5 2.5q0 5 4 13q5 10 14 25.5t24.5 40t41 59.5t63.5 84q10 12 24 26t30 26t34 20t35 9q-6 -7 -13.5 -14.5t-15.5 -18.5q-37 -51 -58.5 -101.5t-35.5 -95.5zM852 778q0 11 -8 19.5
t-16 8.5q-16 0 -24.5 -10t-13 -23.5t-7.5 -28.5t-8 -25q-11 -22 -24 -36.5t-25 -24t-20 -15t-8 -8.5q0 -7 7 -7q6 0 30 13.5t50 34.5t46.5 48t20.5 54z" />
    <glyph glyph-name="Acircumflex" unicode="&#xc2;" horiz-adv-x="722" 
d="M779 588q-25 -4 -47 -10.5t-44 -18.5q-49 -27 -93 -70.5t-84 -93.5t-75.5 -103t-67.5 -99q-18 -26 -41 -56.5t-50.5 -57t-59 -44t-66.5 -17.5q-16 0 -27 2.5t-19 4.5q-33 10 -49 26.5t-22.5 32.5t-8 28t-6.5 12t-5.5 -2.5t-0.5 -7.5q0 -17 10.5 -39.5t22.5 -35.5
q27 -26 53.5 -32.5t61.5 -6.5q45 0 85.5 20t75.5 50t64.5 65.5t51.5 67.5q3 5 8 12.5t10.5 14t11.5 11.5t12 5q29 0 55 -4t45 -6l10 -2.5t6 -6.5q0 -6 -3 -14.5t-5 -12.5q-3 -13 -15 -39t-27.5 -54t-32 -54t-29.5 -39q-3 -3 -3 -7q0 -5 8 -5q3 0 10 2.5t24 2.5q18 0 29 -3.5
t31 -3.5q8 0 15 0.5t13 3.5q11 6 19 14t8 10q0 6 -5 6q-2 0 -12.5 -8t-21.5 -8q-23 0 -23 24q0 4 3.5 12.5t7.5 19.5q1 4 7.5 15.5t18 38t28 71t37.5 116.5q7 24 18 62t25 77t30 73.5t34 52.5zM670 588q-30 -11 -62 -17t-65 -6q-32 0 -60.5 5t-56.5 11t-55 10.5t-54 4.5
q-39 0 -81.5 -13.5t-78 -39t-58 -61.5t-22.5 -80q0 -13 3 -26.5t7.5 -24t10 -17.5t9.5 -7t4 2q0 4 -8 21t-8 45q0 37 15 67t40.5 51t57.5 32t67 11q25 0 50 -5t51 -11t51.5 -10.5t50.5 -4.5q26 0 50 3q25 3 49 10t44 15t34 16.5t19 14.5zM633 340q-5 -14 -9.5 -28t-9.5 -28
q-5 -13 -8.5 -21.5t-20.5 -8.5q-5 0 -11.5 1.5t-16.5 3.5t-22 3.5t-27 1.5q-9 0 -15.5 0.5t-6.5 2.5q0 5 4 13q5 10 14 25.5t24.5 40t41 59.5t63.5 84q10 12 24 26t30 26t34 20t35 9q-6 -7 -13.5 -14.5t-15.5 -18.5q-37 -51 -58.5 -101.5t-35.5 -95.5zM757 734
q3 -8 12.5 -25.5t22 -35.5t25.5 -31.5t21 -13.5q9 0 9 8q0 1 -9.5 16.5t-21.5 37t-22.5 46.5t-12.5 45q-2 15 -5.5 19t-10.5 4q-10 0 -15 -11q-2 -5 -14 -19.5t-30 -33.5t-40 -40.5t-44 -39.5q-4 -3 -15.5 -11.5t-11.5 -13.5t7 -5q6 0 28.5 13t48.5 30.5t49 35t29 25.5z" />
    <glyph glyph-name="Atilde" unicode="&#xc3;" horiz-adv-x="722" 
d="M779 588q-25 -4 -47 -10.5t-44 -18.5q-49 -27 -93 -70.5t-84 -93.5t-75.5 -103t-67.5 -99q-18 -26 -41 -56.5t-50.5 -57t-59 -44t-66.5 -17.5q-16 0 -27 2.5t-19 4.5q-33 10 -49 26.5t-22.5 32.5t-8 28t-6.5 12t-5.5 -2.5t-0.5 -7.5q0 -17 10.5 -39.5t22.5 -35.5
q27 -26 53.5 -32.5t61.5 -6.5q45 0 85.5 20t75.5 50t64.5 65.5t51.5 67.5q3 5 8 12.5t10.5 14t11.5 11.5t12 5q29 0 55 -4t45 -6l10 -2.5t6 -6.5q0 -6 -3 -14.5t-5 -12.5q-3 -13 -15 -39t-27.5 -54t-32 -54t-29.5 -39q-3 -3 -3 -7q0 -5 8 -5q3 0 10 2.5t24 2.5q18 0 29 -3.5
t31 -3.5q8 0 15 0.5t13 3.5q11 6 19 14t8 10q0 6 -5 6q-2 0 -12.5 -8t-21.5 -8q-23 0 -23 24q0 4 3.5 12.5t7.5 19.5q1 4 7.5 15.5t18 38t28 71t37.5 116.5q7 24 18 62t25 77t30 73.5t34 52.5zM670 588q-30 -11 -62 -17t-65 -6q-32 0 -60.5 5t-56.5 11t-55 10.5t-54 4.5
q-39 0 -81.5 -13.5t-78 -39t-58 -61.5t-22.5 -80q0 -13 3 -26.5t7.5 -24t10 -17.5t9.5 -7t4 2q0 4 -8 21t-8 45q0 37 15 67t40.5 51t57.5 32t67 11q25 0 50 -5t51 -11t51.5 -10.5t50.5 -4.5q26 0 50 3q25 3 49 10t44 15t34 16.5t19 14.5zM633 340q-5 -14 -9.5 -28t-9.5 -28
q-5 -13 -8.5 -21.5t-20.5 -8.5q-5 0 -11.5 1.5t-16.5 3.5t-22 3.5t-27 1.5q-9 0 -15.5 0.5t-6.5 2.5q0 5 4 13q5 10 14 25.5t24.5 40t41 59.5t63.5 84q10 12 24 26t30 26t34 20t35 9q-6 -7 -13.5 -14.5t-15.5 -18.5q-37 -51 -58.5 -101.5t-35.5 -95.5zM610 627q4 0 7.5 8.5
t10 18t16.5 18t26 8.5q18 0 33 -5.5t29 -13.5t29.5 -13.5t32.5 -5.5q15 0 29.5 8t26 20t18.5 26.5t7 28.5q0 9 -2 11.5t-4 2.5q-6 0 -9.5 -8t-10 -17.5t-18.5 -17.5t-34 -8q-12 0 -26 5.5t-30 13.5t-32.5 13.5t-33.5 5.5q-20 0 -34 -12t-22.5 -27.5t-12 -30t-3.5 -19.5
q0 -10 7 -10z" />
    <glyph glyph-name="Adieresis" unicode="&#xc4;" horiz-adv-x="722" 
d="M779 588q-25 -4 -47 -10.5t-44 -18.5q-49 -27 -93 -70.5t-84 -93.5t-75.5 -103t-67.5 -99q-18 -26 -41 -56.5t-50.5 -57t-59 -44t-66.5 -17.5q-16 0 -27 2.5t-19 4.5q-33 10 -49 26.5t-22.5 32.5t-8 28t-6.5 12t-5.5 -2.5t-0.5 -7.5q0 -17 10.5 -39.5t22.5 -35.5
q27 -26 53.5 -32.5t61.5 -6.5q45 0 85.5 20t75.5 50t64.5 65.5t51.5 67.5q3 5 8 12.5t10.5 14t11.5 11.5t12 5q29 0 55 -4t45 -6l10 -2.5t6 -6.5q0 -6 -3 -14.5t-5 -12.5q-3 -13 -15 -39t-27.5 -54t-32 -54t-29.5 -39q-3 -3 -3 -7q0 -5 8 -5q3 0 10 2.5t24 2.5q18 0 29 -3.5
t31 -3.5q8 0 15 0.5t13 3.5q11 6 19 14t8 10q0 6 -5 6q-2 0 -12.5 -8t-21.5 -8q-23 0 -23 24q0 4 3.5 12.5t7.5 19.5q1 4 7.5 15.5t18 38t28 71t37.5 116.5q7 24 18 62t25 77t30 73.5t34 52.5zM670 588q-30 -11 -62 -17t-65 -6q-32 0 -60.5 5t-56.5 11t-55 10.5t-54 4.5
q-39 0 -81.5 -13.5t-78 -39t-58 -61.5t-22.5 -80q0 -13 3 -26.5t7.5 -24t10 -17.5t9.5 -7t4 2q0 4 -8 21t-8 45q0 37 15 67t40.5 51t57.5 32t67 11q25 0 50 -5t51 -11t51.5 -10.5t50.5 -4.5q26 0 50 3q25 3 49 10t44 15t34 16.5t19 14.5zM633 340q-5 -14 -9.5 -28t-9.5 -28
q-5 -13 -8.5 -21.5t-20.5 -8.5q-5 0 -11.5 1.5t-16.5 3.5t-22 3.5t-27 1.5q-9 0 -15.5 0.5t-6.5 2.5q0 5 4 13q5 10 14 25.5t24.5 40t41 59.5t63.5 84q10 12 24 26t30 26t34 20t35 9q-6 -7 -13.5 -14.5t-15.5 -18.5q-37 -51 -58.5 -101.5t-35.5 -95.5zM823 708
q-15 0 -24.5 -11t-9.5 -25t9.5 -25t24.5 -11t24.5 11t9.5 25t-9.5 25t-24.5 11zM661 708q-15 0 -24.5 -11t-9.5 -25t9.5 -25t24.5 -11t24.5 11t9.5 25t-9.5 25t-24.5 11z" />
    <glyph glyph-name="Aring" unicode="&#xc5;" horiz-adv-x="722" 
d="M779 588q-25 -4 -47 -10.5t-44 -18.5q-49 -27 -93 -70.5t-84 -93.5t-75.5 -103t-67.5 -99q-18 -26 -41 -56.5t-50.5 -57t-59 -44t-66.5 -17.5q-16 0 -27 2.5t-19 4.5q-33 10 -49 26.5t-22.5 32.5t-8 28t-6.5 12t-5.5 -2.5t-0.5 -7.5q0 -17 10.5 -39.5t22.5 -35.5
q27 -26 53.5 -32.5t61.5 -6.5q45 0 85.5 20t75.5 50t64.5 65.5t51.5 67.5q3 5 8 12.5t10.5 14t11.5 11.5t12 5q29 0 55 -4t45 -6l10 -2.5t6 -6.5q0 -6 -3 -14.5t-5 -12.5q-3 -13 -15 -39t-27.5 -54t-32 -54t-29.5 -39q-3 -3 -3 -7q0 -5 8 -5q3 0 10 2.5t24 2.5q18 0 29 -3.5
t31 -3.5q8 0 15 0.5t13 3.5q11 6 19 14t8 10q0 6 -5 6q-2 0 -12.5 -8t-21.5 -8q-23 0 -23 24q0 4 3.5 12.5t7.5 19.5q1 4 7.5 15.5t18 38t28 71t37.5 116.5q7 24 18 62t25 77t30 73.5t34 52.5zM670 588q-30 -11 -62 -17t-65 -6q-32 0 -60.5 5t-56.5 11t-55 10.5t-54 4.5
q-39 0 -81.5 -13.5t-78 -39t-58 -61.5t-22.5 -80q0 -13 3 -26.5t7.5 -24t10 -17.5t9.5 -7t4 2q0 4 -8 21t-8 45q0 37 15 67t40.5 51t57.5 32t67 11q25 0 50 -5t51 -11t51.5 -10.5t50.5 -4.5q26 0 50 3q25 3 49 10t44 15t34 16.5t19 14.5zM633 340q-5 -14 -9.5 -28t-9.5 -28
q-5 -13 -8.5 -21.5t-20.5 -8.5q-5 0 -11.5 1.5t-16.5 3.5t-22 3.5t-27 1.5q-9 0 -15.5 0.5t-6.5 2.5q0 5 4 13q5 10 14 25.5t24.5 40t41 59.5t63.5 84q10 12 24 26t30 26t34 20t35 9q-6 -7 -13.5 -14.5t-15.5 -18.5q-37 -51 -58.5 -101.5t-35.5 -95.5zM801 812
q33 0 55 -22.5t22 -54.5t-22 -54.5t-55 -22.5t-55 22.5t-22 54.5t22 54.5t55 22.5zM801 842q-22 0 -41.5 -8.5t-34 -23.5t-23 -34.5t-8.5 -40.5t8.5 -40.5t23 -34.5t34 -23.5t41.5 -8.5t41.5 8.5t34 23.5t23 34.5t8.5 40.5t-8.5 40.5t-23 34.5t-34 23.5t-41.5 8.5z" />
    <glyph glyph-name="AE" unicode="&#xc6;" horiz-adv-x="1000" 
d="M110 18q-34 0 -52.5 12.5t-27.5 27t-11.5 27t-4.5 12.5q-6 0 -7 -4t-1 -7q0 -20 14.5 -41t29.5 -29q17 -8 33 -12t41 -4q49 0 92 22.5t80 57t66.5 75.5t52.5 79q6 11 11 13.5t20 2.5q12 0 21 -2t19 -4q11 -2 23.5 -4t32.5 -2q-26 -72 -46.5 -116t-34.5 -68.5t-21.5 -33.5
t-7.5 -11q0 -9 5 -9t8.5 3t13.5 3q20 0 36 -3t33 -3q7 0 20 2t13 10q0 6 -12 6q-5 0 -15 3.5t-10 18.5q0 5 3 13.5t7.5 17t9 16.5t7.5 13q34 -60 80 -80t112 -20q51 0 95.5 17.5t77.5 48t52 72.5t19 92q0 5 -1.5 14t-4 18t-6 15.5t-6.5 6.5q-5 0 -9 -3t-4 -7t6.5 -16
t6.5 -32q0 -47 -19.5 -85t-51 -65.5t-71.5 -42.5t-82 -15q-32 0 -60 9t-48.5 27t-32 44t-11.5 60q0 76 37.5 127.5t118.5 74.5q5 1 12.5 3t14 4.5t11.5 7t5 12.5q0 11 -9.5 18t-21.5 15t-21.5 20t-9.5 33t9.5 39t24.5 31.5t34 21t39 7.5q30 0 53.5 -15t23.5 -49
q0 -21 -12 -38t-34 -17q-20 0 -28 6t-12 6q-6 0 -6 -6t7 -11t17 -9t21.5 -6t19.5 -2q27 0 45 17.5t18 45.5q0 30 -13.5 48.5t-34.5 29t-46 14.5t-49 4q-19 0 -34 -0.5t-28.5 -2.5t-28 -5t-32.5 -8q-70 -19 -125 -67t-101.5 -110t-87 -129t-81 -122.5t-84 -91.5t-95.5 -36z
M72 396q0 -9 2 -20.5t6 -22t8.5 -18t9.5 -7.5q7 0 7 4q0 5 -7.5 21.5t-7.5 44.5q0 41 17 70t42.5 47t56 26.5t56.5 8.5q19 0 40.5 -3t44.5 -8q24 -5 50 -8t52 -3q29 0 61 6.5t59 15.5t44.5 18t17.5 15q0 5 -7 5q-5 0 -14 -3t-24 -7q-14 -4 -34.5 -7t-48.5 -3q-21 0 -44.5 4
t-48.5 9t-50.5 10t-51.5 5q-44 0 -86.5 -12.5t-75.5 -38t-53.5 -63t-20.5 -86.5zM735 566q-18 -7 -32 -21t-25 -30q-38 -58 -68.5 -120t-62.5 -136q-5 -1 -9.5 -2t-11.5 -1q-11 0 -20.5 2t-19.5 4q-11 2 -20.5 4t-20.5 2q-3 0 -6.5 -1t-5.5 -1q11 17 25.5 41.5t29.5 49.5
t30.5 48.5t27.5 38.5q24 30 44.5 52t42 37t46 23t56.5 11v-2v1zM688 442q11 -13 23.5 -22t30.5 -16q6 -2 17 -6.5t11 -9.5q0 -10 -11 -10q-24 0 -54 -9t-57 -17q4 25 15.5 47t24.5 43z" />
    <glyph glyph-name="Ccedilla" unicode="&#xc7;" horiz-adv-x="611" 
d="M62 232q0 -54 19.5 -97t53 -73t79 -46t97.5 -16q48 0 94 15.5t82.5 43.5t59 68t22.5 90q0 13 -3.5 28t-9 28t-11.5 21t-10 8q-5 0 -5 -8q0 -12 3.5 -29t3.5 -29q0 -44 -16 -83.5t-44.5 -69.5t-67.5 -47.5t-85 -17.5q-50 0 -88 16.5t-63.5 45.5t-38 68.5t-12.5 86.5
q0 52 22.5 110.5t61 108.5t89.5 83t108 33q11 0 25.5 -1.5t28.5 -3t26 -2.5t19 -1q12 0 25.5 2t22.5 2q20 0 28.5 -15t8.5 -47q0 -10 -3 -21t-8.5 -20t-14 -15t-20.5 -6q-11 0 -18 3.5t-12 8t-8 8t-5 3.5q-4 0 -4 -6q0 -10 16.5 -22.5t44.5 -12.5q18 0 33 9t26.5 23.5
t18 31.5t6.5 34q0 9 -2.5 20.5t-7 21.5t-12.5 17t-18 7q-12 0 -38 -4t-61 -4q-31 0 -59 4t-41 4q-39 0 -76.5 -11t-71.5 -31t-63.5 -47.5t-51.5 -59.5q-34 -50 -54.5 -97.5t-20.5 -109.5zM314 -1q-2 -5 -8.5 -14.5t-13.5 -20.5t-12 -20.5t-5 -12.5q0 -10 13 -10q9 0 17.5 3
t16.5 3q17 0 32 -9.5t15 -29.5q0 -15 -8 -24.5t-19.5 -14t-25.5 -6t-26 -1.5q-16 0 -32 3t-29.5 7t-23.5 7t-13 3q-7 0 -7 -7q0 -6 12.5 -13t32 -12.5t43 -9.5t44.5 -4q16 0 33.5 3.5t31 12t22.5 21.5t9 33q0 34 -21 50.5t-53 16.5q-8 0 -16 -1.5t-16 -3.5l30 51h-23z" />
    <glyph glyph-name="Egrave" unicode="&#xc8;" horiz-adv-x="556" 
d="M436 428q33 0 53 19.5t20 51.5q0 26 -17 43t-42 27.5t-52 14.5t-47 4q-27 0 -57 -5t-55.5 -18t-42.5 -34t-17 -54q0 -24 14.5 -38.5t32 -23.5t32 -14t14.5 -11q0 -7 -7 -9.5t-34 -5.5q-29 -3 -63.5 -17t-64.5 -38t-50 -59t-20 -81q0 -43 20.5 -76.5t53 -56.5t73.5 -35
t82 -12q56 0 107 17t89.5 47.5t61 72.5t22.5 93q0 5 -1.5 14t-4 18t-5.5 15.5t-6 6.5t-6.5 -3t-3.5 -7t4.5 -14.5t4.5 -26.5q0 -48 -22 -87.5t-57.5 -68t-80 -44t-89.5 -15.5q-41 0 -75.5 9.5t-59 30t-38 51.5t-13.5 74q0 25 9 50.5t26 48t42 41t57 30.5q13 5 25 7.5
t21.5 5.5t15 7t5.5 12q0 11 -9 19t-20.5 17t-20.5 20.5t-9 29.5q0 28 15 47t37.5 30.5t48.5 16.5t49 5q12 0 28 -3.5t30.5 -10.5t24 -18t9.5 -26q0 -20 -10.5 -37t-33.5 -17q-15 0 -25.5 5t-17 11t-10 11t-4.5 5q-4 0 -4 -5q0 -6 5 -16t14 -19t21.5 -15.5t27.5 -6.5z
M294 778q0 -27 20.5 -54t46.5 -48t50 -34.5t30 -13.5q7 0 7 7q0 3 -8 8.5t-20 15t-25.5 24t-23.5 36.5q-5 10 -8 25t-7.5 28.5t-13 23.5t-24.5 10q-8 0 -16 -8.5t-8 -19.5z" />
    <glyph glyph-name="Eacute" unicode="&#xc9;" horiz-adv-x="556" 
d="M436 428q33 0 53 19.5t20 51.5q0 26 -17 43t-42 27.5t-52 14.5t-47 4q-27 0 -57 -5t-55.5 -18t-42.5 -34t-17 -54q0 -24 14.5 -38.5t32 -23.5t32 -14t14.5 -11q0 -7 -7 -9.5t-34 -5.5q-29 -3 -63.5 -17t-64.5 -38t-50 -59t-20 -81q0 -43 20.5 -76.5t53 -56.5t73.5 -35
t82 -12q56 0 107 17t89.5 47.5t61 72.5t22.5 93q0 5 -1.5 14t-4 18t-5.5 15.5t-6 6.5t-6.5 -3t-3.5 -7t4.5 -14.5t4.5 -26.5q0 -48 -22 -87.5t-57.5 -68t-80 -44t-89.5 -15.5q-41 0 -75.5 9.5t-59 30t-38 51.5t-13.5 74q0 25 9 50.5t26 48t42 41t57 30.5q13 5 25 7.5
t21.5 5.5t15 7t5.5 12q0 11 -9 19t-20.5 17t-20.5 20.5t-9 29.5q0 28 15 47t37.5 30.5t48.5 16.5t49 5q12 0 28 -3.5t30.5 -10.5t24 -18t9.5 -26q0 -20 -10.5 -37t-33.5 -17q-15 0 -25.5 5t-17 11t-10 11t-4.5 5q-4 0 -4 -5q0 -6 5 -16t14 -19t21.5 -15.5t27.5 -6.5z
M514 778q0 11 -8 19.5t-16 8.5q-16 0 -24.5 -10t-13 -23.5t-7.5 -28.5t-8 -25q-11 -22 -24 -36.5t-25 -24t-20 -15t-8 -8.5q0 -7 7 -7q6 0 30 13.5t50 34.5t46.5 48t20.5 54z" />
    <glyph glyph-name="Ecircumflex" unicode="&#xca;" horiz-adv-x="556" 
d="M436 428q33 0 53 19.5t20 51.5q0 26 -17 43t-42 27.5t-52 14.5t-47 4q-27 0 -57 -5t-55.5 -18t-42.5 -34t-17 -54q0 -24 14.5 -38.5t32 -23.5t32 -14t14.5 -11q0 -7 -7 -9.5t-34 -5.5q-29 -3 -63.5 -17t-64.5 -38t-50 -59t-20 -81q0 -43 20.5 -76.5t53 -56.5t73.5 -35
t82 -12q56 0 107 17t89.5 47.5t61 72.5t22.5 93q0 5 -1.5 14t-4 18t-5.5 15.5t-6 6.5t-6.5 -3t-3.5 -7t4.5 -14.5t4.5 -26.5q0 -48 -22 -87.5t-57.5 -68t-80 -44t-89.5 -15.5q-41 0 -75.5 9.5t-59 30t-38 51.5t-13.5 74q0 25 9 50.5t26 48t42 41t57 30.5q13 5 25 7.5
t21.5 5.5t15 7t5.5 12q0 11 -9 19t-20.5 17t-20.5 20.5t-9 29.5q0 28 15 47t37.5 30.5t48.5 16.5t49 5q12 0 28 -3.5t30.5 -10.5t24 -18t9.5 -26q0 -20 -10.5 -37t-33.5 -17q-15 0 -25.5 5t-17 11t-10 11t-4.5 5q-4 0 -4 -5q0 -6 5 -16t14 -19t21.5 -15.5t27.5 -6.5z
M419 734q3 -8 12.5 -25.5t22 -35.5t25.5 -31.5t21 -13.5q9 0 9 8q0 1 -9.5 16.5t-21.5 37t-22.5 46.5t-12.5 45q-2 15 -5.5 19t-10.5 4q-10 0 -15 -11q-2 -5 -14 -19.5t-30 -33.5t-40 -40.5t-44 -39.5q-4 -3 -15.5 -11.5t-11.5 -13.5t7 -5q6 0 28.5 13t48.5 30.5t49 35
t29 25.5z" />
    <glyph glyph-name="Edieresis" unicode="&#xcb;" horiz-adv-x="556" 
d="M436 428q33 0 53 19.5t20 51.5q0 26 -17 43t-42 27.5t-52 14.5t-47 4q-27 0 -57 -5t-55.5 -18t-42.5 -34t-17 -54q0 -24 14.5 -38.5t32 -23.5t32 -14t14.5 -11q0 -7 -7 -9.5t-34 -5.5q-29 -3 -63.5 -17t-64.5 -38t-50 -59t-20 -81q0 -43 20.5 -76.5t53 -56.5t73.5 -35
t82 -12q56 0 107 17t89.5 47.5t61 72.5t22.5 93q0 5 -1.5 14t-4 18t-5.5 15.5t-6 6.5t-6.5 -3t-3.5 -7t4.5 -14.5t4.5 -26.5q0 -48 -22 -87.5t-57.5 -68t-80 -44t-89.5 -15.5q-41 0 -75.5 9.5t-59 30t-38 51.5t-13.5 74q0 25 9 50.5t26 48t42 41t57 30.5q13 5 25 7.5
t21.5 5.5t15 7t5.5 12q0 11 -9 19t-20.5 17t-20.5 20.5t-9 29.5q0 28 15 47t37.5 30.5t48.5 16.5t49 5q12 0 28 -3.5t30.5 -10.5t24 -18t9.5 -26q0 -20 -10.5 -37t-33.5 -17q-15 0 -25.5 5t-17 11t-10 11t-4.5 5q-4 0 -4 -5q0 -6 5 -16t14 -19t21.5 -15.5t27.5 -6.5z
M485 708q-15 0 -24.5 -11t-9.5 -25t9.5 -25t24.5 -11t24.5 11t9.5 25t-9.5 25t-24.5 11zM323 708q-15 0 -24.5 -11t-9.5 -25t9.5 -25t24.5 -11t24.5 11t9.5 25t-9.5 25t-24.5 11z" />
    <glyph glyph-name="Igrave" unicode="&#xcc;" horiz-adv-x="500" 
d="M606 552q-39 -38 -62 -68.5t-42 -59.5q-22 -34 -44 -77t-46.5 -88t-52 -88.5t-60.5 -77t-72 -54.5t-86 -21q-39 0 -61.5 11t-35.5 24.5t-18.5 24.5t-10.5 11q-3 0 -4.5 -1t-1.5 -7q0 -9 9 -22.5t25.5 -26.5t39 -22.5t50.5 -9.5q51 0 92.5 12.5t76 34.5t62 52t51.5 64
q34 48 58 102t47.5 107t49.5 102t65 88q6 6 10 9t4 8q0 3 -5 3q-4 0 -20 -3t-30 -3q-30 0 -71 6t-77 6q-54 0 -100.5 -13t-91.5 -48q-14 -11 -28.5 -28.5t-27.5 -40t-21 -49t-8 -54.5q0 -24 6.5 -49t19.5 -45.5t31.5 -33.5t42.5 -13q9 0 18 1.5t9 7.5q0 11 -5 11
q-4 0 -8.5 -1t-7.5 -1q-20 0 -36.5 10t-28 26.5t-17.5 38.5t-6 47q0 45 20.5 80t53 58.5t73 35.5t80.5 12q62 0 107 3.5t84 10.5zM411 778q0 -27 20.5 -54t46.5 -48t50 -34.5t30 -13.5q7 0 7 7q0 3 -8 8.5t-20 15t-25.5 24t-23.5 36.5q-5 10 -8 25t-7.5 28.5t-13 23.5
t-24.5 10q-8 0 -16 -8.5t-8 -19.5z" />
    <glyph glyph-name="Iacute" unicode="&#xcd;" horiz-adv-x="500" 
d="M606 552q-39 -38 -62 -68.5t-42 -59.5q-22 -34 -44 -77t-46.5 -88t-52 -88.5t-60.5 -77t-72 -54.5t-86 -21q-39 0 -61.5 11t-35.5 24.5t-18.5 24.5t-10.5 11q-3 0 -4.5 -1t-1.5 -7q0 -9 9 -22.5t25.5 -26.5t39 -22.5t50.5 -9.5q51 0 92.5 12.5t76 34.5t62 52t51.5 64
q34 48 58 102t47.5 107t49.5 102t65 88q6 6 10 9t4 8q0 3 -5 3q-4 0 -20 -3t-30 -3q-30 0 -71 6t-77 6q-54 0 -100.5 -13t-91.5 -48q-14 -11 -28.5 -28.5t-27.5 -40t-21 -49t-8 -54.5q0 -24 6.5 -49t19.5 -45.5t31.5 -33.5t42.5 -13q9 0 18 1.5t9 7.5q0 11 -5 11
q-4 0 -8.5 -1t-7.5 -1q-20 0 -36.5 10t-28 26.5t-17.5 38.5t-6 47q0 45 20.5 80t53 58.5t73 35.5t80.5 12q62 0 107 3.5t84 10.5zM631 778q0 11 -8 19.5t-16 8.5q-16 0 -24.5 -10t-13 -23.5t-7.5 -28.5t-8 -25q-11 -22 -24 -36.5t-25 -24t-20 -15t-8 -8.5q0 -7 7 -7
q6 0 30 13.5t50 34.5t46.5 48t20.5 54z" />
    <glyph glyph-name="Icircumflex" unicode="&#xce;" horiz-adv-x="500" 
d="M606 552q-39 -38 -62 -68.5t-42 -59.5q-22 -34 -44 -77t-46.5 -88t-52 -88.5t-60.5 -77t-72 -54.5t-86 -21q-39 0 -61.5 11t-35.5 24.5t-18.5 24.5t-10.5 11q-3 0 -4.5 -1t-1.5 -7q0 -9 9 -22.5t25.5 -26.5t39 -22.5t50.5 -9.5q51 0 92.5 12.5t76 34.5t62 52t51.5 64
q34 48 58 102t47.5 107t49.5 102t65 88q6 6 10 9t4 8q0 3 -5 3q-4 0 -20 -3t-30 -3q-30 0 -71 6t-77 6q-54 0 -100.5 -13t-91.5 -48q-14 -11 -28.5 -28.5t-27.5 -40t-21 -49t-8 -54.5q0 -24 6.5 -49t19.5 -45.5t31.5 -33.5t42.5 -13q9 0 18 1.5t9 7.5q0 11 -5 11
q-4 0 -8.5 -1t-7.5 -1q-20 0 -36.5 10t-28 26.5t-17.5 38.5t-6 47q0 45 20.5 80t53 58.5t73 35.5t80.5 12q62 0 107 3.5t84 10.5zM536 734q3 -8 12.5 -25.5t22 -35.5t25.5 -31.5t21 -13.5q9 0 9 8q0 1 -9.5 16.5t-21.5 37t-22.5 46.5t-12.5 45q-2 15 -5.5 19t-10.5 4
q-10 0 -15 -11q-2 -5 -14 -19.5t-30 -33.5t-40 -40.5t-44 -39.5q-4 -3 -15.5 -11.5t-11.5 -13.5t7 -5q6 0 28.5 13t48.5 30.5t49 35t29 25.5z" />
    <glyph glyph-name="Idieresis" unicode="&#xcf;" horiz-adv-x="500" 
d="M606 552q-39 -38 -62 -68.5t-42 -59.5q-22 -34 -44 -77t-46.5 -88t-52 -88.5t-60.5 -77t-72 -54.5t-86 -21q-39 0 -61.5 11t-35.5 24.5t-18.5 24.5t-10.5 11q-3 0 -4.5 -1t-1.5 -7q0 -9 9 -22.5t25.5 -26.5t39 -22.5t50.5 -9.5q51 0 92.5 12.5t76 34.5t62 52t51.5 64
q34 48 58 102t47.5 107t49.5 102t65 88q6 6 10 9t4 8q0 3 -5 3q-4 0 -20 -3t-30 -3q-30 0 -71 6t-77 6q-54 0 -100.5 -13t-91.5 -48q-14 -11 -28.5 -28.5t-27.5 -40t-21 -49t-8 -54.5q0 -24 6.5 -49t19.5 -45.5t31.5 -33.5t42.5 -13q9 0 18 1.5t9 7.5q0 11 -5 11
q-4 0 -8.5 -1t-7.5 -1q-20 0 -36.5 10t-28 26.5t-17.5 38.5t-6 47q0 45 20.5 80t53 58.5t73 35.5t80.5 12q62 0 107 3.5t84 10.5zM602 708q-15 0 -24.5 -11t-9.5 -25t9.5 -25t24.5 -11t24.5 11t9.5 25t-9.5 25t-24.5 11zM440 708q-15 0 -24.5 -11t-9.5 -25t9.5 -25t24.5 -11
t24.5 11t9.5 25t-9.5 25t-24.5 11z" />
    <glyph glyph-name="Eth" unicode="&#xd0;" horiz-adv-x="667" 
d="M144 297q-5 -1 -8 -2.5t-3 -6.5q0 -8 11 -8l131 8q-14 -32 -25 -58t-22 -45q-6 -11 -14.5 -25.5t-18 -29t-19 -27t-17.5 -19.5q-5 -4 -8.5 -6.5t-3.5 -4.5q0 -5 8 -5q15 0 31.5 10t33 26t32 36t28.5 40.5t22.5 39t13.5 31.5q3 9 6.5 18.5t9.5 22.5l162 12q5 1 8 2.5
t3 6.5q0 9 -11 9l-155 -11q9 24 24.5 57t42.5 81q21 38 37.5 54.5t16.5 18.5q0 5 -4 5q-7 0 -18 -6.5t-17 -11.5q-26 -20 -46.5 -44t-37.5 -50.5t-30 -54t-24 -53.5zM644 313q0 64 -27.5 116.5t-72.5 89.5t-102.5 57t-117.5 20q-47 0 -95.5 -12.5t-87.5 -38t-64 -64.5
t-25 -93q0 -5 1.5 -15.5t4.5 -20.5t7.5 -17.5t10.5 -7.5q5 0 5 5q0 4 -1.5 7.5t-4 10t-4 17.5t-1.5 30q0 49 25 83t62.5 56t82.5 32t86 10q60 0 108 -17t82.5 -49t53 -79.5t18.5 -107.5q0 -62 -25.5 -117.5t-68.5 -97.5t-99.5 -67t-118.5 -25q-23 0 -52.5 4.5t-50.5 12.5
q-30 11 -57 30.5t-52 39.5q-7 0 -7 -5t4 -9l7 -7q45 -45 101.5 -64.5t124.5 -19.5q65 0 128 23t112.5 64t79.5 99t30 127z" />
    <glyph glyph-name="Ntilde" unicode="&#xd1;" horiz-adv-x="778" 
d="M548 192q-11 23 -19 46t-14 42.5t-11.5 35t-9.5 24.5q-23 43 -40.5 88.5t-43 82.5t-64 61t-102.5 24q-35 0 -65 -15t-52.5 -40t-35.5 -56.5t-13 -64.5q0 -16 4.5 -33t11.5 -31t14 -23t12 -9q6 0 6 5q0 4 -4.5 11t-10.5 17.5t-10.5 25.5t-4.5 36q0 32 12 61t32.5 50.5
t48.5 34.5t61 13q34 0 64 -22.5t52.5 -55.5t35 -71t12.5 -68q0 -32 -8 -69.5t-23.5 -75.5t-37.5 -73.5t-50 -63.5t-61 -44.5t-70 -16.5q-28 0 -44.5 11t-16.5 31q0 5 -0.5 12t-0.5 11q0 5 -7 5q-6 0 -8 -9t-2 -15q0 -16 7 -28t18 -20t25 -12t28 -4q47 0 83.5 19t65 49
t49.5 67.5t35 75.5t22.5 72t13.5 57h2l13 -28q32 -86 53.5 -145t41.5 -96.5t43.5 -54t59.5 -16.5q24 0 42.5 9t31.5 21t19.5 24.5t6.5 20.5q0 5 -2 5.5t-4 0.5q-4 0 -10 -10t-15 -21.5t-22.5 -21.5t-32.5 -10q-28 0 -46 15.5t-28 39t-13.5 50t-3.5 47.5q0 44 11 91t30.5 91
t46 83.5t56.5 69t62.5 46.5t64.5 17q24 0 42.5 -7t32 -16t22 -16t10.5 -7q3 0 3 4q0 9 -10 21.5t-26.5 23t-38 18t-43.5 7.5q-38 0 -73 -18t-65 -46.5t-53 -63t-36 -66.5q-11 -26 -18.5 -49.5t-13 -47.5t-11 -51.5t-11.5 -61.5h-2zM447 627q4 0 7.5 8.5t10 18t16.5 18
t26 8.5q18 0 33 -5.5t29 -13.5t29.5 -13.5t32.5 -5.5q15 0 29.5 8t26 20t18.5 26.5t7 28.5q0 9 -2 11.5t-4 2.5q-6 0 -9.5 -8t-10 -17.5t-18.5 -17.5t-34 -8q-12 0 -26 5.5t-30 13.5t-32.5 13.5t-33.5 5.5q-20 0 -34 -12t-22.5 -27.5t-12 -30t-3.5 -19.5q0 -10 7 -10z" />
    <glyph glyph-name="Ograve" unicode="&#xd2;" horiz-adv-x="556" 
d="M237 0q48 0 92 18.5t81 50t67 73t50.5 87t32 93t11.5 91.5q0 36 -9.5 72.5t-29.5 65.5t-52 47t-78 18q-50 0 -90.5 -24.5t-70.5 -62.5q-5 -6 -12 -17t-14 -23.5t-12 -24t-5 -17.5q0 -2 0.5 -6.5t3.5 -4.5q5 0 8 5.5t6.5 14.5t8 20t11.5 21q16 22 33 40.5t37 32t45 21
t57 7.5q27 0 54.5 -11t41.5 -31q14 -18 19.5 -47.5t5.5 -77.5q0 -35 -13 -79t-35.5 -90t-52 -90t-63 -78t-69 -55t-69.5 -21q-39 0 -66 14t-44 36.5t-25 50.5t-8 56q0 34 2 58t6.5 45t10.5 42t15 50q8 28 21.5 57.5t29.5 57.5t33.5 51t34.5 37q11 9 11 13q0 6 -5 6t-18 -10
t-27.5 -23.5t-28.5 -28.5t-21 -24q-26 -33 -45.5 -65t-33 -65.5t-20.5 -70.5t-7 -80q0 -45 12.5 -86t37 -72t61 -49t84.5 -18zM306 778q0 -27 20.5 -54t46.5 -48t50 -34.5t30 -13.5q7 0 7 7q0 3 -8 8.5t-20 15t-25.5 24t-23.5 36.5q-5 10 -8 25t-7.5 28.5t-13 23.5t-24.5 10
q-8 0 -16 -8.5t-8 -19.5z" />
    <glyph glyph-name="Oacute" unicode="&#xd3;" horiz-adv-x="556" 
d="M237 0q48 0 92 18.5t81 50t67 73t50.5 87t32 93t11.5 91.5q0 36 -9.5 72.5t-29.5 65.5t-52 47t-78 18q-50 0 -90.5 -24.5t-70.5 -62.5q-5 -6 -12 -17t-14 -23.5t-12 -24t-5 -17.5q0 -2 0.5 -6.5t3.5 -4.5q5 0 8 5.5t6.5 14.5t8 20t11.5 21q16 22 33 40.5t37 32t45 21
t57 7.5q27 0 54.5 -11t41.5 -31q14 -18 19.5 -47.5t5.5 -77.5q0 -35 -13 -79t-35.5 -90t-52 -90t-63 -78t-69 -55t-69.5 -21q-39 0 -66 14t-44 36.5t-25 50.5t-8 56q0 34 2 58t6.5 45t10.5 42t15 50q8 28 21.5 57.5t29.5 57.5t33.5 51t34.5 37q11 9 11 13q0 6 -5 6t-18 -10
t-27.5 -23.5t-28.5 -28.5t-21 -24q-26 -33 -45.5 -65t-33 -65.5t-20.5 -70.5t-7 -80q0 -45 12.5 -86t37 -72t61 -49t84.5 -18zM526 778q0 11 -8 19.5t-16 8.5q-16 0 -24.5 -10t-13 -23.5t-7.5 -28.5t-8 -25q-11 -22 -24 -36.5t-25 -24t-20 -15t-8 -8.5q0 -7 7 -7
q6 0 30 13.5t50 34.5t46.5 48t20.5 54z" />
    <glyph glyph-name="Ocircumflex" unicode="&#xd4;" horiz-adv-x="556" 
d="M237 0q48 0 92 18.5t81 50t67 73t50.5 87t32 93t11.5 91.5q0 36 -9.5 72.5t-29.5 65.5t-52 47t-78 18q-50 0 -90.5 -24.5t-70.5 -62.5q-5 -6 -12 -17t-14 -23.5t-12 -24t-5 -17.5q0 -2 0.5 -6.5t3.5 -4.5q5 0 8 5.5t6.5 14.5t8 20t11.5 21q16 22 33 40.5t37 32t45 21
t57 7.5q27 0 54.5 -11t41.5 -31q14 -18 19.5 -47.5t5.5 -77.5q0 -35 -13 -79t-35.5 -90t-52 -90t-63 -78t-69 -55t-69.5 -21q-39 0 -66 14t-44 36.5t-25 50.5t-8 56q0 34 2 58t6.5 45t10.5 42t15 50q8 28 21.5 57.5t29.5 57.5t33.5 51t34.5 37q11 9 11 13q0 6 -5 6t-18 -10
t-27.5 -23.5t-28.5 -28.5t-21 -24q-26 -33 -45.5 -65t-33 -65.5t-20.5 -70.5t-7 -80q0 -45 12.5 -86t37 -72t61 -49t84.5 -18zM431 734q3 -8 12.5 -25.5t22 -35.5t25.5 -31.5t21 -13.5q9 0 9 8q0 1 -9.5 16.5t-21.5 37t-22.5 46.5t-12.5 45q-2 15 -5.5 19t-10.5 4
q-10 0 -15 -11q-2 -5 -14 -19.5t-30 -33.5t-40 -40.5t-44 -39.5q-4 -3 -15.5 -11.5t-11.5 -13.5t7 -5q6 0 28.5 13t48.5 30.5t49 35t29 25.5z" />
    <glyph glyph-name="Otilde" unicode="&#xd5;" horiz-adv-x="556" 
d="M237 0q48 0 92 18.5t81 50t67 73t50.5 87t32 93t11.5 91.5q0 36 -9.5 72.5t-29.5 65.5t-52 47t-78 18q-50 0 -90.5 -24.5t-70.5 -62.5q-5 -6 -12 -17t-14 -23.5t-12 -24t-5 -17.5q0 -2 0.5 -6.5t3.5 -4.5q5 0 8 5.5t6.5 14.5t8 20t11.5 21q16 22 33 40.5t37 32t45 21
t57 7.5q27 0 54.5 -11t41.5 -31q14 -18 19.5 -47.5t5.5 -77.5q0 -35 -13 -79t-35.5 -90t-52 -90t-63 -78t-69 -55t-69.5 -21q-39 0 -66 14t-44 36.5t-25 50.5t-8 56q0 34 2 58t6.5 45t10.5 42t15 50q8 28 21.5 57.5t29.5 57.5t33.5 51t34.5 37q11 9 11 13q0 6 -5 6t-18 -10
t-27.5 -23.5t-28.5 -28.5t-21 -24q-26 -33 -45.5 -65t-33 -65.5t-20.5 -70.5t-7 -80q0 -45 12.5 -86t37 -72t61 -49t84.5 -18zM284 627q4 0 7.5 8.5t10 18t16.5 18t26 8.5q18 0 33 -5.5t29 -13.5t29.5 -13.5t32.5 -5.5q15 0 29.5 8t26 20t18.5 26.5t7 28.5q0 9 -2 11.5
t-4 2.5q-6 0 -9.5 -8t-10 -17.5t-18.5 -17.5t-34 -8q-12 0 -26 5.5t-30 13.5t-32.5 13.5t-33.5 5.5q-20 0 -34 -12t-22.5 -27.5t-12 -30t-3.5 -19.5q0 -10 7 -10z" />
    <glyph glyph-name="Odieresis" unicode="&#xd6;" horiz-adv-x="556" 
d="M237 0q48 0 92 18.5t81 50t67 73t50.5 87t32 93t11.5 91.5q0 36 -9.5 72.5t-29.5 65.5t-52 47t-78 18q-50 0 -90.5 -24.5t-70.5 -62.5q-5 -6 -12 -17t-14 -23.5t-12 -24t-5 -17.5q0 -2 0.5 -6.5t3.5 -4.5q5 0 8 5.5t6.5 14.5t8 20t11.5 21q16 22 33 40.5t37 32t45 21
t57 7.5q27 0 54.5 -11t41.5 -31q14 -18 19.5 -47.5t5.5 -77.5q0 -35 -13 -79t-35.5 -90t-52 -90t-63 -78t-69 -55t-69.5 -21q-39 0 -66 14t-44 36.5t-25 50.5t-8 56q0 34 2 58t6.5 45t10.5 42t15 50q8 28 21.5 57.5t29.5 57.5t33.5 51t34.5 37q11 9 11 13q0 6 -5 6t-18 -10
t-27.5 -23.5t-28.5 -28.5t-21 -24q-26 -33 -45.5 -65t-33 -65.5t-20.5 -70.5t-7 -80q0 -45 12.5 -86t37 -72t61 -49t84.5 -18zM497 708q-15 0 -24.5 -11t-9.5 -25t9.5 -25t24.5 -11t24.5 11t9.5 25t-9.5 25t-24.5 11zM335 708q-15 0 -24.5 -11t-9.5 -25t9.5 -25t24.5 -11
t24.5 11t9.5 25t-9.5 25t-24.5 11z" />
    <glyph glyph-name="multiply" unicode="&#xd7;" horiz-adv-x="600" 
d="M280 145l-125 -125l19 -20l126 125l126 -125l19 20l-126 125l126 127l-19 18l-126 -126l-126 126l-19 -18z" />
    <glyph glyph-name="Oslash" unicode="&#xd8;" horiz-adv-x="556" 
d="M129 56q-24 23 -34.5 55t-10.5 64q0 34 2 58t6.5 45t10.5 42t15 50q8 28 21.5 57.5t29.5 57.5t33.5 51t34.5 37q11 9 11 13q0 6 -5 6t-18 -10t-27.5 -23.5t-28.5 -28.5t-21 -24q-26 -33 -45.5 -65t-33 -65.5t-20.5 -70.5t-7 -80q0 -57 19 -106t57 -79l-94 -146h29l86 132
q41 -26 98 -26q48 0 92 18.5t81 50t67 73t50.5 87t32 93t11.5 91.5q0 48 -16.5 95t-54.5 77l78 121h-29l-70 -108q-33 18 -77 18q-50 0 -90.5 -24.5t-70.5 -62.5q-5 -6 -12 -17t-14 -23.5t-12 -24t-5 -17.5q0 -2 0.5 -6.5t3.5 -4.5q5 0 8 5.5t6.5 14.5t8 20t11.5 21
q16 22 33 40.5t37 32t45 21t57 7.5t61 -15zM490 570q5 -4 8.5 -7t5.5 -7q14 -18 19.5 -47.5t5.5 -77.5q0 -35 -13 -79t-35.5 -90t-52 -90t-63 -78t-69 -55t-69.5 -21q-46 0 -79 22z" />
    <glyph glyph-name="Ugrave" unicode="&#xd9;" horiz-adv-x="722" 
d="M58 319q0 -21 6 -44.5t18 -44t30 -33.5t43 -13q9 0 17.5 3t8.5 8q0 4 -7.5 5.5t-18.5 1.5q-15 0 -26.5 7.5t-18.5 19t-10.5 26.5t-3.5 30q0 46 17 97.5t48 95t74.5 72t95.5 28.5q19 0 37.5 -4.5t33.5 -13.5t24.5 -23t9.5 -32q0 -22 -13.5 -55t-33.5 -72t-43.5 -81
t-43.5 -82.5t-33.5 -77t-13.5 -63.5q0 -33 16.5 -53.5t52.5 -20.5q31 0 65 27t68.5 68t67 90t59 93t46 76.5t28.5 41.5l2 -2q-23 -49 -41.5 -89t-33.5 -75t-28.5 -68.5t-26.5 -68.5q-9 -23 -15 -37.5t-12.5 -22.5t-14 -11.5t-17.5 -3.5q-8 0 -10.5 -3.5t-2.5 -6.5
q0 -8 16 -8q14 0 27.5 3t27.5 3q15 0 27 -3t41 -3q9 0 17.5 4t15.5 9.5t11.5 12t4.5 11.5q0 7 -7 7q-3 0 -6 -4t-6.5 -9t-9 -9t-12.5 -4q-12 0 -16 9t-4 17q0 6 6 32t18 65t29.5 88.5t40.5 103.5t51 109.5t61 107.5q13 20 20.5 26t7.5 9q0 7 -6 7t-25 -14.5t-52.5 -53.5
t-82.5 -108.5t-115 -179.5q-24 -40 -53.5 -79t-59.5 -70t-56.5 -50t-44.5 -19q-17 0 -24 5.5t-7 21.5q0 21 13 53.5t32 70.5t41.5 79.5t41.5 81t32 74.5t13 60q0 59 -33.5 95.5t-96.5 36.5q-54 0 -104 -23.5t-89 -62t-62 -88.5t-23 -103zM505 778q0 -27 20.5 -54t46.5 -48
t50 -34.5t30 -13.5q7 0 7 7q0 3 -8 8.5t-20 15t-25.5 24t-23.5 36.5q-5 10 -8 25t-7.5 28.5t-13 23.5t-24.5 10q-8 0 -16 -8.5t-8 -19.5z" />
    <glyph glyph-name="Uacute" unicode="&#xda;" horiz-adv-x="722" 
d="M58 319q0 -21 6 -44.5t18 -44t30 -33.5t43 -13q9 0 17.5 3t8.5 8q0 4 -7.5 5.5t-18.5 1.5q-15 0 -26.5 7.5t-18.5 19t-10.5 26.5t-3.5 30q0 46 17 97.5t48 95t74.5 72t95.5 28.5q19 0 37.5 -4.5t33.5 -13.5t24.5 -23t9.5 -32q0 -22 -13.5 -55t-33.5 -72t-43.5 -81
t-43.5 -82.5t-33.5 -77t-13.5 -63.5q0 -33 16.5 -53.5t52.5 -20.5q31 0 65 27t68.5 68t67 90t59 93t46 76.5t28.5 41.5l2 -2q-23 -49 -41.5 -89t-33.5 -75t-28.5 -68.5t-26.5 -68.5q-9 -23 -15 -37.5t-12.5 -22.5t-14 -11.5t-17.5 -3.5q-8 0 -10.5 -3.5t-2.5 -6.5
q0 -8 16 -8q14 0 27.5 3t27.5 3q15 0 27 -3t41 -3q9 0 17.5 4t15.5 9.5t11.5 12t4.5 11.5q0 7 -7 7q-3 0 -6 -4t-6.5 -9t-9 -9t-12.5 -4q-12 0 -16 9t-4 17q0 6 6 32t18 65t29.5 88.5t40.5 103.5t51 109.5t61 107.5q13 20 20.5 26t7.5 9q0 7 -6 7t-25 -14.5t-52.5 -53.5
t-82.5 -108.5t-115 -179.5q-24 -40 -53.5 -79t-59.5 -70t-56.5 -50t-44.5 -19q-17 0 -24 5.5t-7 21.5q0 21 13 53.5t32 70.5t41.5 79.5t41.5 81t32 74.5t13 60q0 59 -33.5 95.5t-96.5 36.5q-54 0 -104 -23.5t-89 -62t-62 -88.5t-23 -103zM725 778q0 11 -8 19.5t-16 8.5
q-16 0 -24.5 -10t-13 -23.5t-7.5 -28.5t-8 -25q-11 -22 -24 -36.5t-25 -24t-20 -15t-8 -8.5q0 -7 7 -7q6 0 30 13.5t50 34.5t46.5 48t20.5 54z" />
    <glyph glyph-name="Ucircumflex" unicode="&#xdb;" horiz-adv-x="722" 
d="M58 319q0 -21 6 -44.5t18 -44t30 -33.5t43 -13q9 0 17.5 3t8.5 8q0 4 -7.5 5.5t-18.5 1.5q-15 0 -26.5 7.5t-18.5 19t-10.5 26.5t-3.5 30q0 46 17 97.5t48 95t74.5 72t95.5 28.5q19 0 37.5 -4.5t33.5 -13.5t24.5 -23t9.5 -32q0 -22 -13.5 -55t-33.5 -72t-43.5 -81
t-43.5 -82.5t-33.5 -77t-13.5 -63.5q0 -33 16.5 -53.5t52.5 -20.5q31 0 65 27t68.5 68t67 90t59 93t46 76.5t28.5 41.5l2 -2q-23 -49 -41.5 -89t-33.5 -75t-28.5 -68.5t-26.5 -68.5q-9 -23 -15 -37.5t-12.5 -22.5t-14 -11.5t-17.5 -3.5q-8 0 -10.5 -3.5t-2.5 -6.5
q0 -8 16 -8q14 0 27.5 3t27.5 3q15 0 27 -3t41 -3q9 0 17.5 4t15.5 9.5t11.5 12t4.5 11.5q0 7 -7 7q-3 0 -6 -4t-6.5 -9t-9 -9t-12.5 -4q-12 0 -16 9t-4 17q0 6 6 32t18 65t29.5 88.5t40.5 103.5t51 109.5t61 107.5q13 20 20.5 26t7.5 9q0 7 -6 7t-25 -14.5t-52.5 -53.5
t-82.5 -108.5t-115 -179.5q-24 -40 -53.5 -79t-59.5 -70t-56.5 -50t-44.5 -19q-17 0 -24 5.5t-7 21.5q0 21 13 53.5t32 70.5t41.5 79.5t41.5 81t32 74.5t13 60q0 59 -33.5 95.5t-96.5 36.5q-54 0 -104 -23.5t-89 -62t-62 -88.5t-23 -103zM630 734q3 -8 12.5 -25.5t22 -35.5
t25.5 -31.5t21 -13.5q9 0 9 8q0 1 -9.5 16.5t-21.5 37t-22.5 46.5t-12.5 45q-2 15 -5.5 19t-10.5 4q-10 0 -15 -11q-2 -5 -14 -19.5t-30 -33.5t-40 -40.5t-44 -39.5q-4 -3 -15.5 -11.5t-11.5 -13.5t7 -5q6 0 28.5 13t48.5 30.5t49 35t29 25.5z" />
    <glyph glyph-name="Udieresis" unicode="&#xdc;" horiz-adv-x="722" 
d="M58 319q0 -21 6 -44.5t18 -44t30 -33.5t43 -13q9 0 17.5 3t8.5 8q0 4 -7.5 5.5t-18.5 1.5q-15 0 -26.5 7.5t-18.5 19t-10.5 26.5t-3.5 30q0 46 17 97.5t48 95t74.5 72t95.5 28.5q19 0 37.5 -4.5t33.5 -13.5t24.5 -23t9.5 -32q0 -22 -13.5 -55t-33.5 -72t-43.5 -81
t-43.5 -82.5t-33.5 -77t-13.5 -63.5q0 -33 16.5 -53.5t52.5 -20.5q31 0 65 27t68.5 68t67 90t59 93t46 76.5t28.5 41.5l2 -2q-23 -49 -41.5 -89t-33.5 -75t-28.5 -68.5t-26.5 -68.5q-9 -23 -15 -37.5t-12.5 -22.5t-14 -11.5t-17.5 -3.5q-8 0 -10.5 -3.5t-2.5 -6.5
q0 -8 16 -8q14 0 27.5 3t27.5 3q15 0 27 -3t41 -3q9 0 17.5 4t15.5 9.5t11.5 12t4.5 11.5q0 7 -7 7q-3 0 -6 -4t-6.5 -9t-9 -9t-12.5 -4q-12 0 -16 9t-4 17q0 6 6 32t18 65t29.5 88.5t40.5 103.5t51 109.5t61 107.5q13 20 20.5 26t7.5 9q0 7 -6 7t-25 -14.5t-52.5 -53.5
t-82.5 -108.5t-115 -179.5q-24 -40 -53.5 -79t-59.5 -70t-56.5 -50t-44.5 -19q-17 0 -24 5.5t-7 21.5q0 21 13 53.5t32 70.5t41.5 79.5t41.5 81t32 74.5t13 60q0 59 -33.5 95.5t-96.5 36.5q-54 0 -104 -23.5t-89 -62t-62 -88.5t-23 -103zM696 708q-15 0 -24.5 -11t-9.5 -25
t9.5 -25t24.5 -11t24.5 11t9.5 25t-9.5 25t-24.5 11zM534 708q-15 0 -24.5 -11t-9.5 -25t9.5 -25t24.5 -11t24.5 11t9.5 25t-9.5 25t-24.5 11z" />
    <glyph glyph-name="Yacute" unicode="&#xdd;" horiz-adv-x="611" 
d="M280 551q-26 -35 -51 -72.5t-45 -77t-32.5 -82t-12.5 -88.5q0 -30 7 -57.5t22 -48.5t39 -33.5t58 -12.5t65 16.5t58.5 43.5t52 61t45 69.5t36.5 69t28 58.5h2q-2 -30 -18 -83.5t-44.5 -116t-68 -126.5t-88.5 -116.5t-107 -85.5t-122 -33q-45 0 -72 27t-27 67q0 8 1 14
t-1 10q-2 6 -8 6q-5 0 -7.5 -9.5t-2.5 -22.5q0 -27 10.5 -47.5t28 -34.5t40.5 -21t47 -7q45 0 92.5 17t94 47t88 70.5t74.5 87.5t59 99t44.5 103.5t28.5 101.5t10 94q0 34 -10.5 74.5t-30.5 69.5q-2 0 -5.5 -0.5t-3.5 -4.5t5 -20.5t5 -42.5q0 -23 -10.5 -57t-28 -72.5
t-40 -79t-46.5 -75.5t-48.5 -61.5t-44.5 -38.5q-14 -8 -29 -11.5t-27 -3.5q-25 0 -43 13.5t-29.5 33.5t-17 44.5t-5.5 47.5q0 67 20 126.5t43.5 104t43.5 70.5t20 27q0 6 -5 6q-8 0 -29.5 -9t-56.5 -9q-20 0 -37.5 3t-34 6t-33.5 6t-36 3q-18 0 -35 -4.5t-30 -14t-21 -24
t-8 -34.5q0 -11 3.5 -22.5t9.5 -11.5q9 0 9 5t-2 9.5t-2 8.5q0 26 12.5 36t32.5 10q6 0 19.5 -3t29.5 -6t33 -6t29 -3q29 0 55 9t53 17zM525 778q0 11 -8 19.5t-16 8.5q-16 0 -24.5 -10t-13 -23.5t-7.5 -28.5t-8 -25q-11 -22 -24 -36.5t-25 -24t-20 -15t-8 -8.5q0 -7 7 -7
q6 0 30 13.5t50 34.5t46.5 48t20.5 54z" />
    <glyph glyph-name="Thorn" unicode="&#xde;" horiz-adv-x="667" 
d="M720 327q0 22 -7 45.5t-17 42.5t-21.5 31t-20.5 12q-11 0 -17 -3t-15 -7t-25 -7t-46 -3q17 35 37.5 66.5t46.5 57.5q6 6 10 9t4 8q0 3 -5 3q-4 0 -20 -2t-30 -2q-30 0 -71 5t-77 5q-54 0 -100.5 -13t-91.5 -48q-14 -11 -28.5 -28.5t-27.5 -40t-21 -49t-8 -54.5
q0 -24 6.5 -49t19.5 -45.5t31.5 -33.5t42.5 -13q12 0 19.5 2t7.5 7t-6 7t-15 2q-20 0 -36.5 10t-28 26.5t-17.5 38.5t-6 47q0 45 20.5 80t53 58.5t73 35.5t80.5 12q62 0 107 3.5t84 10.5l1 -2q-39 -38 -62 -68.5t-42 -59.5q-22 -34 -44 -77t-46.5 -88t-52 -88.5t-60.5 -77
t-72 -54.5t-86 -21q-39 0 -62.5 11t-36.5 24.5t-18.5 24.5t-8.5 11t-4.5 -1t-1.5 -7q0 -9 9 -22.5t25.5 -26.5t39 -22.5t50.5 -9.5q48 0 88 11.5t73 31.5t60.5 47t50.5 59q4 -7 13.5 -14.5t23 -13.5t29.5 -9.5t31 -3.5q45 0 84.5 17t69.5 47t47 70t17 85zM682 374
q0 -35 -15.5 -77.5t-42.5 -79.5t-62 -62t-74 -25q-34 0 -51 11t-25 18q38 56 67.5 123t58.5 128q20 2 39.5 7t35.5 10t26 9t12 4q9 0 14.5 -7t9.5 -17.5t5.5 -21.5t1.5 -20z" />
    <glyph glyph-name="germandbls" unicode="&#xdf;" horiz-adv-x="389" 
d="M11 87q-14 -29 -29.5 -67.5t-41.5 -91.5q-14 -29 -32.5 -51.5t-35 -39t-28 -27t-11.5 -15.5q0 -7 9 -7q7 0 24.5 12.5t38 31t41 40.5t33.5 41q27 39 53 88.5t51.5 105t52 114.5t55.5 118l32 64t45.5 78.5t55.5 66.5t61 28q14 0 28.5 -7t14.5 -23q0 -33 -16.5 -63.5
t-41.5 -57t-53.5 -49t-53.5 -39t-41.5 -27.5t-16.5 -14q0 -12 12 -19.5t27 -17.5t27 -27t12 -48q0 -22 -8 -44t-21.5 -42t-30 -37t-34.5 -29q-12 -8 -24.5 -11t-28.5 -3q-20 0 -20 15q0 8 5.5 15t12.5 13t12.5 11t5.5 8q0 4 -4.5 5.5t-9.5 1.5q-54 0 -54 -45q0 -27 14 -34.5
t39 -7.5q37 0 73.5 13t65 36.5t46 55t17.5 68.5t-17.5 58t-38.5 33t-38.5 18t-17.5 13q0 3 17.5 9.5t44 18t57 27.5t57 38.5t44 52t17.5 66.5q0 35 -16.5 61t-57.5 26q-44 0 -81 -21.5t-69.5 -59t-61.5 -87t-56.5 -106t-54.5 -116.5t-56 -117z" />
    <glyph glyph-name="agrave" unicode="&#xe0;" horiz-adv-x="389" 
d="M255 0q13 0 22 0.5t15.5 2t11.5 5t10 10.5q10 12 13 19.5t3 16.5q0 5 -2 5.5t-6 0.5q-3 0 -5 -6.5t-5.5 -14.5t-11 -14.5t-21.5 -6.5q-11 0 -15.5 9t-4.5 18q0 21 12 50t29 59t35 57.5t30 45.5q-14 11 -39.5 14t-57.5 3q-41 0 -87 -16t-85 -42.5t-65 -60.5t-26 -70
q0 -48 25.5 -66.5t70.5 -18.5q21 0 38.5 3.5t36.5 14.5q-1 -5 -2 -7t-1 -7q0 -4 7 -4h75zM67 90q0 31 23 61t56 53.5t70 37.5t65 14q10 0 20 -4q-18 -30 -37.5 -60.5t-39.5 -80.5q-5 -11 -11.5 -25t-17.5 -27t-28 -22t-41 -9q-30 0 -44.5 16.5t-14.5 45.5zM171 470
q0 -27 20.5 -54t46.5 -48t50 -34.5t30 -13.5q7 0 7 7q0 3 -8 8.5t-20 15t-25.5 24t-23.5 36.5q-5 10 -8 25t-7.5 28.5t-13 23.5t-24.5 10q-8 0 -16 -8.5t-8 -19.5z" />
    <glyph glyph-name="aacute" unicode="&#xe1;" horiz-adv-x="389" 
d="M255 0q13 0 22 0.5t15.5 2t11.5 5t10 10.5q10 12 13 19.5t3 16.5q0 5 -2 5.5t-6 0.5q-3 0 -5 -6.5t-5.5 -14.5t-11 -14.5t-21.5 -6.5q-11 0 -15.5 9t-4.5 18q0 21 12 50t29 59t35 57.5t30 45.5q-14 11 -39.5 14t-57.5 3q-41 0 -87 -16t-85 -42.5t-65 -60.5t-26 -70
q0 -48 25.5 -66.5t70.5 -18.5q21 0 38.5 3.5t36.5 14.5q-1 -5 -2 -7t-1 -7q0 -4 7 -4h75zM67 90q0 31 23 61t56 53.5t70 37.5t65 14q10 0 20 -4q-18 -30 -37.5 -60.5t-39.5 -80.5q-5 -11 -11.5 -25t-17.5 -27t-28 -22t-41 -9q-30 0 -44.5 16.5t-14.5 45.5zM391 470
q0 11 -8 19.5t-16 8.5q-16 0 -24.5 -10t-13 -23.5t-7.5 -28.5t-8 -25q-11 -22 -24 -36.5t-25 -24t-20 -15t-8 -8.5q0 -7 7 -7q6 0 30 13.5t50 34.5t46.5 48t20.5 54z" />
    <glyph glyph-name="acircumflex" unicode="&#xe2;" horiz-adv-x="389" 
d="M255 0q13 0 22 0.5t15.5 2t11.5 5t10 10.5q10 12 13 19.5t3 16.5q0 5 -2 5.5t-6 0.5q-3 0 -5 -6.5t-5.5 -14.5t-11 -14.5t-21.5 -6.5q-11 0 -15.5 9t-4.5 18q0 21 12 50t29 59t35 57.5t30 45.5q-14 11 -39.5 14t-57.5 3q-41 0 -87 -16t-85 -42.5t-65 -60.5t-26 -70
q0 -48 25.5 -66.5t70.5 -18.5q21 0 38.5 3.5t36.5 14.5q-1 -5 -2 -7t-1 -7q0 -4 7 -4h75zM67 90q0 31 23 61t56 53.5t70 37.5t65 14q10 0 20 -4q-18 -30 -37.5 -60.5t-39.5 -80.5q-5 -11 -11.5 -25t-17.5 -27t-28 -22t-41 -9q-30 0 -44.5 16.5t-14.5 45.5zM296 426
q3 -8 12.5 -25.5t22 -35.5t25.5 -31.5t21 -13.5q9 0 9 8q0 1 -9.5 16.5t-21.5 37t-22.5 46.5t-12.5 45q-2 15 -5.5 19t-10.5 4q-10 0 -15 -11q-2 -5 -14 -19.5t-30 -33.5t-40 -40.5t-44 -39.5q-4 -3 -15.5 -11.5t-11.5 -13.5t7 -5q6 0 28.5 13t48.5 30.5t49 35t29 25.5z" />
    <glyph glyph-name="atilde" unicode="&#xe3;" horiz-adv-x="389" 
d="M255 0q13 0 22 0.5t15.5 2t11.5 5t10 10.5q10 12 13 19.5t3 16.5q0 5 -2 5.5t-6 0.5q-3 0 -5 -6.5t-5.5 -14.5t-11 -14.5t-21.5 -6.5q-11 0 -15.5 9t-4.5 18q0 21 12 50t29 59t35 57.5t30 45.5q-14 11 -39.5 14t-57.5 3q-41 0 -87 -16t-85 -42.5t-65 -60.5t-26 -70
q0 -48 25.5 -66.5t70.5 -18.5q21 0 38.5 3.5t36.5 14.5q-1 -5 -2 -7t-1 -7q0 -4 7 -4h75zM67 90q0 31 23 61t56 53.5t70 37.5t65 14q10 0 20 -4q-18 -30 -37.5 -60.5t-39.5 -80.5q-5 -11 -11.5 -25t-17.5 -27t-28 -22t-41 -9q-30 0 -44.5 16.5t-14.5 45.5zM149 319
q4 0 7.5 8.5t10 18t16.5 18t26 8.5q18 0 33 -5.5t29 -13.5t29.5 -13.5t32.5 -5.5q15 0 29.5 8t26 20t18.5 26.5t7 28.5q0 9 -2 11.5t-4 2.5q-6 0 -9.5 -8t-10 -17.5t-18.5 -17.5t-34 -8q-12 0 -26 5.5t-30 13.5t-32.5 13.5t-33.5 5.5q-20 0 -34 -12t-22.5 -27.5t-12 -30
t-3.5 -19.5q0 -10 7 -10z" />
    <glyph glyph-name="adieresis" unicode="&#xe4;" horiz-adv-x="389" 
d="M255 0q13 0 22 0.5t15.5 2t11.5 5t10 10.5q10 12 13 19.5t3 16.5q0 5 -2 5.5t-6 0.5q-3 0 -5 -6.5t-5.5 -14.5t-11 -14.5t-21.5 -6.5q-11 0 -15.5 9t-4.5 18q0 21 12 50t29 59t35 57.5t30 45.5q-14 11 -39.5 14t-57.5 3q-41 0 -87 -16t-85 -42.5t-65 -60.5t-26 -70
q0 -48 25.5 -66.5t70.5 -18.5q21 0 38.5 3.5t36.5 14.5q-1 -5 -2 -7t-1 -7q0 -4 7 -4h75zM67 90q0 31 23 61t56 53.5t70 37.5t65 14q10 0 20 -4q-18 -30 -37.5 -60.5t-39.5 -80.5q-5 -11 -11.5 -25t-17.5 -27t-28 -22t-41 -9q-30 0 -44.5 16.5t-14.5 45.5zM362 400
q-15 0 -24.5 -11t-9.5 -25t9.5 -25t24.5 -11t24.5 11t9.5 25t-9.5 25t-24.5 11zM200 400q-15 0 -24.5 -11t-9.5 -25t9.5 -25t24.5 -11t24.5 11t9.5 25t-9.5 25t-24.5 11z" />
    <glyph glyph-name="aring" unicode="&#xe5;" horiz-adv-x="389" 
d="M255 0q13 0 22 0.5t15.5 2t11.5 5t10 10.5q10 12 13 19.5t3 16.5q0 5 -2 5.5t-6 0.5q-3 0 -5 -6.5t-5.5 -14.5t-11 -14.5t-21.5 -6.5q-11 0 -15.5 9t-4.5 18q0 21 12 50t29 59t35 57.5t30 45.5q-14 11 -39.5 14t-57.5 3q-41 0 -87 -16t-85 -42.5t-65 -60.5t-26 -70
q0 -48 25.5 -66.5t70.5 -18.5q21 0 38.5 3.5t36.5 14.5q-1 -5 -2 -7t-1 -7q0 -4 7 -4h75zM67 90q0 31 23 61t56 53.5t70 37.5t65 14q10 0 20 -4q-18 -30 -37.5 -60.5t-39.5 -80.5q-5 -11 -11.5 -25t-17.5 -27t-28 -22t-41 -9q-30 0 -44.5 16.5t-14.5 45.5zM340 504
q33 0 55 -22.5t22 -54.5t-22 -54.5t-55 -22.5t-55 22.5t-22 54.5t22 54.5t55 22.5zM340 534q-22 0 -41.5 -8.5t-34 -23.5t-23 -34.5t-8.5 -40.5t8.5 -40.5t23 -34.5t34 -23.5t41.5 -8.5t41.5 8.5t34 23.5t23 34.5t8.5 40.5t-8.5 40.5t-23 34.5t-34 23.5t-41.5 8.5z" />
    <glyph glyph-name="ae" unicode="&#xe6;" horiz-adv-x="556" 
d="M0 87q0 -42 24 -64.5t65 -22.5q25 0 41.5 5t36.5 19q4 -6 9.5 -7.5t12.5 -1.5q5 0 9.5 1t9.5 1q13 0 24 -2.5t23.5 -6t28 -6t36.5 -2.5q25 0 43 1.5t32 4.5t26 8.5t26 13.5q3 1 10 6t14.5 11t13.5 11t6 8t-1.5 6t-6.5 3q-3 0 -11 -6q-32 -23 -60.5 -31t-67.5 -8
q-11 0 -26 2.5t-28.5 8.5t-23.5 15.5t-10 23.5q0 26 14 46q19 -7 38 -9.5t39 -2.5q43 0 76.5 16.5t56 39.5t34 46.5t11.5 37.5q0 24 -11.5 35t-37.5 11q-32 0 -62.5 -8.5t-59.5 -22.5q-19 5 -39 9t-40 4q-27 0 -49 -3.5t-48 -11.5q-27 -9 -58.5 -26t-58 -40t-44 -52
t-17.5 -60zM62 96q0 32 22 62t53.5 53t66.5 37t61 14h16t12 -2q-16 -18 -30 -40.5t-26 -46t-22 -44.5t-16 -35q-12 -27 -27.5 -43.5t-46.5 -16.5q-63 0 -63 62zM469 242q0 -23 -14 -42.5t-34.5 -34t-44.5 -23t-44 -8.5q-14 0 -27 1t-26 6q9 21 24.5 43.5t34.5 41.5t42 31.5
t47 12.5q20 0 31 -8.5t11 -19.5z" />
    <glyph glyph-name="ccedilla" unicode="&#xe7;" 
d="M5 113q0 -51 31.5 -82t82.5 -31q38 0 63 12t50 38q23 24 32 33.5t9 18.5q0 3 -2 4t-4 1t-12 -12.5t-26 -27t-38.5 -27t-49.5 -12.5q-19 0 -33.5 8.5t-25 22.5t-16 31t-5.5 34q0 25 12 50t31.5 44.5t44 31.5t50.5 12q37 0 49.5 -4.5t12.5 -16.5q0 -11 -9 -21.5t-16 -10.5
q-5 0 -9 -2.5t-4 -7.5q0 -11 12.5 -14.5t23.5 -3.5q24 0 39 19t15 41q0 10 -3 24.5t-13 14.5q-7 0 -13 -4t-17 -4q-16 0 -32.5 4t-45.5 4q-36 0 -69 -12.5t-58.5 -34.5t-41 -53t-15.5 -67zM89 -1q-2 -5 -8.5 -14.5t-13.5 -20.5t-12 -20.5t-5 -12.5q0 -10 13 -10q9 0 17.5 3
t16.5 3q17 0 32 -9.5t15 -29.5q0 -15 -8 -24.5t-19.5 -14t-25.5 -6t-26 -1.5q-16 0 -32 3t-29.5 7t-23.5 7t-13 3q-7 0 -7 -7q0 -6 12.5 -13t32 -12.5t43 -9.5t44.5 -4q16 0 33.5 3.5t31 12t22.5 21.5t9 33q0 34 -21 50.5t-53 16.5q-8 0 -16 -1.5t-16 -3.5l30 51h-23z" />
    <glyph glyph-name="egrave" unicode="&#xe8;" 
d="M7 109q0 -26 9.5 -46t25.5 -34t38 -21.5t46 -7.5t43.5 2.5t43.5 14.5q3 1 12.5 6.5t19.5 12t18 14t8 12.5q0 6 -5 6t-9.5 -4t-11.5 -9q-11 -8 -33.5 -17.5t-54.5 -9.5q-14 0 -29.5 6.5t-28 18t-20.5 26.5t-8 33q9 -2 20 -3t21 -1q32 0 65 8t63 29q13 9 25 22.5t21 27.5
t14.5 27.5t5.5 24.5q0 23 -15 33t-34 10q-36 0 -79.5 -13t-81.5 -37t-63.5 -57.5t-25.5 -73.5zM250 235q0 -20 -15.5 -40.5t-36.5 -37.5q-19 -15 -42.5 -23t-53.5 -8q-9 0 -17 2t-16 3q0 23 13.5 46.5t34 42t45 30.5t45.5 12q15 0 29 -4.5t14 -22.5zM120 470q0 -27 20.5 -54
t46.5 -48t50 -34.5t30 -13.5q7 0 7 7q0 3 -8 8.5t-20 15t-25.5 24t-23.5 36.5q-5 10 -8 25t-7.5 28.5t-13 23.5t-24.5 10q-8 0 -16 -8.5t-8 -19.5z" />
    <glyph glyph-name="eacute" unicode="&#xe9;" 
d="M7 109q0 -26 9.5 -46t25.5 -34t38 -21.5t46 -7.5t43.5 2.5t43.5 14.5q3 1 12.5 6.5t19.5 12t18 14t8 12.5q0 6 -5 6t-9.5 -4t-11.5 -9q-11 -8 -33.5 -17.5t-54.5 -9.5q-14 0 -29.5 6.5t-28 18t-20.5 26.5t-8 33q9 -2 20 -3t21 -1q32 0 65 8t63 29q13 9 25 22.5t21 27.5
t14.5 27.5t5.5 24.5q0 23 -15 33t-34 10q-36 0 -79.5 -13t-81.5 -37t-63.5 -57.5t-25.5 -73.5zM250 235q0 -20 -15.5 -40.5t-36.5 -37.5q-19 -15 -42.5 -23t-53.5 -8q-9 0 -17 2t-16 3q0 23 13.5 46.5t34 42t45 30.5t45.5 12q15 0 29 -4.5t14 -22.5zM340 470q0 11 -8 19.5
t-16 8.5q-16 0 -24.5 -10t-13 -23.5t-7.5 -28.5t-8 -25q-11 -22 -24 -36.5t-25 -24t-20 -15t-8 -8.5q0 -7 7 -7q6 0 30 13.5t50 34.5t46.5 48t20.5 54z" />
    <glyph glyph-name="ecircumflex" unicode="&#xea;" 
d="M7 109q0 -26 9.5 -46t25.5 -34t38 -21.5t46 -7.5t43.5 2.5t43.5 14.5q3 1 12.5 6.5t19.5 12t18 14t8 12.5q0 6 -5 6t-9.5 -4t-11.5 -9q-11 -8 -33.5 -17.5t-54.5 -9.5q-14 0 -29.5 6.5t-28 18t-20.5 26.5t-8 33q9 -2 20 -3t21 -1q32 0 65 8t63 29q13 9 25 22.5t21 27.5
t14.5 27.5t5.5 24.5q0 23 -15 33t-34 10q-36 0 -79.5 -13t-81.5 -37t-63.5 -57.5t-25.5 -73.5zM250 235q0 -20 -15.5 -40.5t-36.5 -37.5q-19 -15 -42.5 -23t-53.5 -8q-9 0 -17 2t-16 3q0 23 13.5 46.5t34 42t45 30.5t45.5 12q15 0 29 -4.5t14 -22.5zM245 426
q3 -8 12.5 -25.5t22 -35.5t25.5 -31.5t21 -13.5q9 0 9 8q0 1 -9.5 16.5t-21.5 37t-22.5 46.5t-12.5 45q-2 15 -5.5 19t-10.5 4q-10 0 -15 -11q-2 -5 -14 -19.5t-30 -33.5t-40 -40.5t-44 -39.5q-4 -3 -15.5 -11.5t-11.5 -13.5t7 -5q6 0 28.5 13t48.5 30.5t49 35t29 25.5z" />
    <glyph glyph-name="edieresis" unicode="&#xeb;" 
d="M7 109q0 -26 9.5 -46t25.5 -34t38 -21.5t46 -7.5t43.5 2.5t43.5 14.5q3 1 12.5 6.5t19.5 12t18 14t8 12.5q0 6 -5 6t-9.5 -4t-11.5 -9q-11 -8 -33.5 -17.5t-54.5 -9.5q-14 0 -29.5 6.5t-28 18t-20.5 26.5t-8 33q9 -2 20 -3t21 -1q32 0 65 8t63 29q13 9 25 22.5t21 27.5
t14.5 27.5t5.5 24.5q0 23 -15 33t-34 10q-36 0 -79.5 -13t-81.5 -37t-63.5 -57.5t-25.5 -73.5zM250 235q0 -20 -15.5 -40.5t-36.5 -37.5q-19 -15 -42.5 -23t-53.5 -8q-9 0 -17 2t-16 3q0 23 13.5 46.5t34 42t45 30.5t45.5 12q15 0 29 -4.5t14 -22.5zM311 400
q-15 0 -24.5 -11t-9.5 -25t9.5 -25t24.5 -11t24.5 11t9.5 25t-9.5 25t-24.5 11zM149 400q-15 0 -24.5 -11t-9.5 -25t9.5 -25t24.5 -11t24.5 11t9.5 25t-9.5 25t-24.5 11z" />
    <glyph glyph-name="igrave" unicode="&#xec;" horiz-adv-x="222" 
d="M193 274q-3 0 -20 -7t-38 -16t-40.5 -17.5t-27.5 -11.5q-9 -4 -9 -11q0 -5 5 -5q9 0 24.5 5t28.5 7q-18 -29 -36 -63.5t-34.5 -65t-31 -51t-24.5 -20.5q-12 0 -19.5 -3t-7.5 -8q0 -6 4 -6.5t18 -0.5q12 0 24 2t23 2q13 0 25.5 -2t25.5 -2q5 0 12.5 0.5t14.5 2.5t12 5.5
t5 10.5q0 4 -7 4q-5 0 -8.5 -2.5t-8.5 -2.5q-10 0 -15.5 8t-5.5 17q0 11 30.5 63t82.5 146q2 4 4 6.5t2 6.5q0 9 -8 9zM81 470q0 -27 20.5 -54t46.5 -48t50 -34.5t30 -13.5q7 0 7 7q0 3 -8 8.5t-20 15t-25.5 24t-23.5 36.5q-5 10 -8 25t-7.5 28.5t-13 23.5t-24.5 10
q-8 0 -16 -8.5t-8 -19.5z" />
    <glyph glyph-name="iacute" unicode="&#xed;" horiz-adv-x="222" 
d="M193 274q-3 0 -20 -7t-38 -16t-40.5 -17.5t-27.5 -11.5q-9 -4 -9 -11q0 -5 5 -5q9 0 24.5 5t28.5 7q-18 -29 -36 -63.5t-34.5 -65t-31 -51t-24.5 -20.5q-12 0 -19.5 -3t-7.5 -8q0 -6 4 -6.5t18 -0.5q12 0 24 2t23 2q13 0 25.5 -2t25.5 -2q5 0 12.5 0.5t14.5 2.5t12 5.5
t5 10.5q0 4 -7 4q-5 0 -8.5 -2.5t-8.5 -2.5q-10 0 -15.5 8t-5.5 17q0 11 30.5 63t82.5 146q2 4 4 6.5t2 6.5q0 9 -8 9zM301 470q0 11 -8 19.5t-16 8.5q-16 0 -24.5 -10t-13 -23.5t-7.5 -28.5t-8 -25q-11 -22 -24 -36.5t-25 -24t-20 -15t-8 -8.5q0 -7 7 -7q6 0 30 13.5
t50 34.5t46.5 48t20.5 54z" />
    <glyph glyph-name="icircumflex" unicode="&#xee;" horiz-adv-x="222" 
d="M193 274q-3 0 -20 -7t-38 -16t-40.5 -17.5t-27.5 -11.5q-9 -4 -9 -11q0 -5 5 -5q9 0 24.5 5t28.5 7q-18 -29 -36 -63.5t-34.5 -65t-31 -51t-24.5 -20.5q-12 0 -19.5 -3t-7.5 -8q0 -6 4 -6.5t18 -0.5q12 0 24 2t23 2q13 0 25.5 -2t25.5 -2q5 0 12.5 0.5t14.5 2.5t12 5.5
t5 10.5q0 4 -7 4q-5 0 -8.5 -2.5t-8.5 -2.5q-10 0 -15.5 8t-5.5 17q0 11 30.5 63t82.5 146q2 4 4 6.5t2 6.5q0 9 -8 9zM206 426q3 -8 12.5 -25.5t22 -35.5t25.5 -31.5t21 -13.5q9 0 9 8q0 1 -9.5 16.5t-21.5 37t-22.5 46.5t-12.5 45q-2 15 -5.5 19t-10.5 4q-10 0 -15 -11
q-2 -5 -14 -19.5t-30 -33.5t-40 -40.5t-44 -39.5q-4 -3 -15.5 -11.5t-11.5 -13.5t7 -5q6 0 28.5 13t48.5 30.5t49 35t29 25.5z" />
    <glyph glyph-name="idieresis" unicode="&#xef;" horiz-adv-x="222" 
d="M193 274q-3 0 -20 -7t-38 -16t-40.5 -17.5t-27.5 -11.5q-9 -4 -9 -11q0 -5 5 -5q9 0 24.5 5t28.5 7q-18 -29 -36 -63.5t-34.5 -65t-31 -51t-24.5 -20.5q-12 0 -19.5 -3t-7.5 -8q0 -6 4 -6.5t18 -0.5q12 0 24 2t23 2q13 0 25.5 -2t25.5 -2q5 0 12.5 0.5t14.5 2.5t12 5.5
t5 10.5q0 4 -7 4q-5 0 -8.5 -2.5t-8.5 -2.5q-10 0 -15.5 8t-5.5 17q0 11 30.5 63t82.5 146q2 4 4 6.5t2 6.5q0 9 -8 9zM272 400q-15 0 -24.5 -11t-9.5 -25t9.5 -25t24.5 -11t24.5 11t9.5 25t-9.5 25t-24.5 11zM110 400q-15 0 -24.5 -11t-9.5 -25t9.5 -25t24.5 -11t24.5 11
t9.5 25t-9.5 25t-24.5 11z" />
    <glyph glyph-name="eth" unicode="&#xf0;" 
d="M46 76q0 24 12.5 55.5t33 59t47 46.5t53.5 19q34 0 45.5 -16.5t11.5 -41.5q0 -24 -12.5 -55.5t-33 -59t-47 -46.5t-53.5 -19q-34 0 -45.5 16.5t-11.5 41.5zM106 409q-6 -4 -6 -10q0 -8 8 -8q3 0 6.5 1.5t5.5 3.5l84 44q37 -61 47.5 -114.5t5.5 -93.5h-2q-5 23 -22.5 32.5
t-43.5 9.5q-29 0 -61 -11t-60 -33t-46 -54.5t-18 -75.5q0 -19 6.5 -37t19 -32t31.5 -22.5t45 -8.5q43 0 78.5 24t61.5 60t40.5 79t14.5 81q0 52 -19.5 105t-54.5 103l94 50q5 2 5 9q0 8 -7 8q-3 0 -7.5 -2t-6.5 -4l-89 -47q-47 65 -117 114q-4 2 -7 5t-6 3q-5 0 -5 -5
q0 -2 5 -7q35 -30 62 -60.5t47 -60.5z" />
    <glyph glyph-name="ntilde" unicode="&#xf1;" horiz-adv-x="389" 
d="M289 207q0 -21 -9 -46t-22 -49t-28 -44t-26 -31q-8 -8 -15.5 -16t-7.5 -15q0 -6 11 -6q5 0 9.5 2t11.5 2q10 0 20.5 -2t23.5 -2q21 0 34.5 11t13.5 20q0 4 -8 4q-5 0 -12 -3.5t-18 -3.5q-12 0 -20.5 2.5t-8.5 9.5q0 4 16.5 20t37 40t37 53.5t16.5 60.5q0 33 -20 49.5
t-52 16.5q-11 0 -26.5 -5t-31 -12.5t-29 -15.5t-22.5 -15q2 9 7 19t5 16q0 7 -6 7q-4 0 -9 -2.5t-11 -4.5q-20 -8 -38.5 -14.5t-32.5 -11.5t-22.5 -9.5t-8.5 -7.5q0 -5 5 -5q11 0 26 5t27 7q-24 -46 -46.5 -91t-47.5 -91q-6 -12 -15.5 -21.5t-25.5 -9.5q-8 0 -13.5 -5
t-5.5 -9q0 -3 4.5 -3.5t9.5 -0.5q12 0 26 2t23 2q6 0 17 -2t31 -2q3 0 11 2.5t15.5 6.5t13.5 8.5t6 9.5q0 8 -7 8q-5 0 -11.5 -8.5t-15.5 -8.5q-11 0 -11 11q0 8 3.5 18t9 20.5t11 20.5t9.5 17q11 20 26 45.5t34.5 48t42.5 38t49 15.5q23 0 31.5 -11.5t8.5 -33.5zM114 319
q4 0 7.5 8.5t10 18t16.5 18t26 8.5q18 0 33 -5.5t29 -13.5t29.5 -13.5t32.5 -5.5q15 0 29.5 8t26 20t18.5 26.5t7 28.5q0 9 -2 11.5t-4 2.5q-6 0 -9.5 -8t-10 -17.5t-18.5 -17.5t-34 -8q-12 0 -26 5.5t-30 13.5t-32.5 13.5t-33.5 5.5q-20 0 -34 -12t-22.5 -27.5t-12 -30
t-3.5 -19.5q0 -10 7 -10z" />
    <glyph glyph-name="ograve" unicode="&#xf2;" 
d="M4 100q0 -19 6.5 -37t19 -32t31.5 -22.5t45 -8.5q28 0 60.5 9.5t60.5 30.5t46 54t18 80q0 19 -6.5 37t-19 32t-32 22.5t-44.5 8.5q-29 0 -61 -11t-60 -33t-46 -54.5t-18 -75.5zM46 76q0 24 12.5 55.5t33 59t47 46.5t53.5 19q34 0 45.5 -16.5t11.5 -41.5
q0 -24 -12.5 -55.5t-33 -59t-47 -46.5t-53.5 -19q-34 0 -45.5 16.5t-11.5 41.5zM108 470q0 -27 20.5 -54t46.5 -48t50 -34.5t30 -13.5q7 0 7 7q0 3 -8 8.5t-20 15t-25.5 24t-23.5 36.5q-5 10 -8 25t-7.5 28.5t-13 23.5t-24.5 10q-8 0 -16 -8.5t-8 -19.5z" />
    <glyph glyph-name="oacute" unicode="&#xf3;" 
d="M4 100q0 -19 6.5 -37t19 -32t31.5 -22.5t45 -8.5q28 0 60.5 9.5t60.5 30.5t46 54t18 80q0 19 -6.5 37t-19 32t-32 22.5t-44.5 8.5q-29 0 -61 -11t-60 -33t-46 -54.5t-18 -75.5zM46 76q0 24 12.5 55.5t33 59t47 46.5t53.5 19q34 0 45.5 -16.5t11.5 -41.5
q0 -24 -12.5 -55.5t-33 -59t-47 -46.5t-53.5 -19q-34 0 -45.5 16.5t-11.5 41.5zM328 470q0 11 -8 19.5t-16 8.5q-16 0 -24.5 -10t-13 -23.5t-7.5 -28.5t-8 -25q-11 -22 -24 -36.5t-25 -24t-20 -15t-8 -8.5q0 -7 7 -7q6 0 30 13.5t50 34.5t46.5 48t20.5 54z" />
    <glyph glyph-name="ocircumflex" unicode="&#xf4;" 
d="M4 100q0 -19 6.5 -37t19 -32t31.5 -22.5t45 -8.5q28 0 60.5 9.5t60.5 30.5t46 54t18 80q0 19 -6.5 37t-19 32t-32 22.5t-44.5 8.5q-29 0 -61 -11t-60 -33t-46 -54.5t-18 -75.5zM46 76q0 24 12.5 55.5t33 59t47 46.5t53.5 19q34 0 45.5 -16.5t11.5 -41.5
q0 -24 -12.5 -55.5t-33 -59t-47 -46.5t-53.5 -19q-34 0 -45.5 16.5t-11.5 41.5zM233 426q3 -8 12.5 -25.5t22 -35.5t25.5 -31.5t21 -13.5q9 0 9 8q0 1 -9.5 16.5t-21.5 37t-22.5 46.5t-12.5 45q-2 15 -5.5 19t-10.5 4q-10 0 -15 -11q-2 -5 -14 -19.5t-30 -33.5t-40 -40.5
t-44 -39.5q-4 -3 -15.5 -11.5t-11.5 -13.5t7 -5q6 0 28.5 13t48.5 30.5t49 35t29 25.5z" />
    <glyph glyph-name="otilde" unicode="&#xf5;" 
d="M4 100q0 -19 6.5 -37t19 -32t31.5 -22.5t45 -8.5q28 0 60.5 9.5t60.5 30.5t46 54t18 80q0 19 -6.5 37t-19 32t-32 22.5t-44.5 8.5q-29 0 -61 -11t-60 -33t-46 -54.5t-18 -75.5zM46 76q0 24 12.5 55.5t33 59t47 46.5t53.5 19q34 0 45.5 -16.5t11.5 -41.5
q0 -24 -12.5 -55.5t-33 -59t-47 -46.5t-53.5 -19q-34 0 -45.5 16.5t-11.5 41.5zM86 319q4 0 7.5 8.5t10 18t16.5 18t26 8.5q18 0 33 -5.5t29 -13.5t29.5 -13.5t32.5 -5.5q15 0 29.5 8t26 20t18.5 26.5t7 28.5q0 9 -2 11.5t-4 2.5q-6 0 -9.5 -8t-10 -17.5t-18.5 -17.5t-34 -8
q-12 0 -26 5.5t-30 13.5t-32.5 13.5t-33.5 5.5q-20 0 -34 -12t-22.5 -27.5t-12 -30t-3.5 -19.5q0 -10 7 -10z" />
    <glyph glyph-name="odieresis" unicode="&#xf6;" 
d="M4 100q0 -19 6.5 -37t19 -32t31.5 -22.5t45 -8.5q28 0 60.5 9.5t60.5 30.5t46 54t18 80q0 19 -6.5 37t-19 32t-32 22.5t-44.5 8.5q-29 0 -61 -11t-60 -33t-46 -54.5t-18 -75.5zM46 76q0 24 12.5 55.5t33 59t47 46.5t53.5 19q34 0 45.5 -16.5t11.5 -41.5
q0 -24 -12.5 -55.5t-33 -59t-47 -46.5t-53.5 -19q-34 0 -45.5 16.5t-11.5 41.5zM299 400q-15 0 -24.5 -11t-9.5 -25t9.5 -25t24.5 -11t24.5 11t9.5 25t-9.5 25t-24.5 11zM137 400q-15 0 -24.5 -11t-9.5 -25t9.5 -25t24.5 -11t24.5 11t9.5 25t-9.5 25t-24.5 11z" />
    <glyph glyph-name="divide" unicode="&#xf7;" horiz-adv-x="600" 
d="M445 132v26h-290v-26h290zM300 296q-13 0 -22.5 -9.5t-9.5 -22.5t9.5 -22.5t22.5 -9.5t22.5 9.5t9.5 22.5t-9.5 22.5t-22.5 9.5zM300 58q-13 0 -22.5 -9.5t-9.5 -22.5t9.5 -22.5t22.5 -9.5t22.5 9.5t9.5 22.5t-9.5 22.5t-22.5 9.5z" />
    <glyph glyph-name="oslash" unicode="&#xf8;" 
d="M82 21q-21 5 -28.5 20t-7.5 35q0 24 12.5 55.5t33 59t47 46.5t53.5 19h1zM214 253q20 -5 27.5 -20t7.5 -35q0 -24 -12.5 -55.5t-33 -59t-47 -46.5t-53.5 -19zM201 272q-3 2 -12 2q-29 0 -61 -11t-60 -33t-46 -54.5t-18 -75.5q0 -31 17.5 -58t52.5 -37l-65 -137h23l63 134
q3 -2 11 -2q28 0 60.5 9.5t60.5 30.5t46 54t18 80q0 31 -17 57.5t-52 37.5l60 127h-23z" />
    <glyph glyph-name="ugrave" unicode="&#xf9;" horiz-adv-x="389" 
d="M68 71q0 16 15 46t33 60t33 54.5t15 31.5t-7 7q-1 0 -20 -6.5t-41 -15t-40.5 -16t-18.5 -10.5q0 -8 5 -8q4 0 11 2t14.5 4.5t14 5t9.5 2.5q-9 -19 -22 -38t-25 -39.5t-20 -41t-8 -42.5q0 -35 23 -51t55 -16q28 0 47 6.5t41 21.5l2 -2q-3 -5 -6.5 -10.5t-3.5 -10.5t5 -5
q7 0 12.5 3t14.5 3q14 0 26 -3t35 -3q11 0 19.5 4.5t8.5 9.5q0 6 -8 6q-4 0 -7.5 -1t-7.5 -1q-9 0 -15.5 3t-6.5 16q0 10 14 39t31.5 62.5t34.5 65t23 46.5q2 5 4.5 8.5t2.5 6.5q0 5 -8 5q-5 0 -22 -6t-35 -13.5t-32.5 -14.5t-14.5 -9q0 -6 5 -6t18.5 3.5t18.5 4.5
q-15 -26 -29 -53.5t-28 -52.5q-12 -21 -23.5 -40.5t-25.5 -33.5t-32.5 -22.5t-44.5 -8.5q-20 0 -29.5 14.5t-9.5 38.5zM136 470q0 -27 20.5 -54t46.5 -48t50 -34.5t30 -13.5q7 0 7 7q0 3 -8 8.5t-20 15t-25.5 24t-23.5 36.5q-5 10 -8 25t-7.5 28.5t-13 23.5t-24.5 10
q-8 0 -16 -8.5t-8 -19.5z" />
    <glyph glyph-name="uacute" unicode="&#xfa;" horiz-adv-x="389" 
d="M68 71q0 16 15 46t33 60t33 54.5t15 31.5t-7 7q-1 0 -20 -6.5t-41 -15t-40.5 -16t-18.5 -10.5q0 -8 5 -8q4 0 11 2t14.5 4.5t14 5t9.5 2.5q-9 -19 -22 -38t-25 -39.5t-20 -41t-8 -42.5q0 -35 23 -51t55 -16q28 0 47 6.5t41 21.5l2 -2q-3 -5 -6.5 -10.5t-3.5 -10.5t5 -5
q7 0 12.5 3t14.5 3q14 0 26 -3t35 -3q11 0 19.5 4.5t8.5 9.5q0 6 -8 6q-4 0 -7.5 -1t-7.5 -1q-9 0 -15.5 3t-6.5 16q0 10 14 39t31.5 62.5t34.5 65t23 46.5q2 5 4.5 8.5t2.5 6.5q0 5 -8 5q-5 0 -22 -6t-35 -13.5t-32.5 -14.5t-14.5 -9q0 -6 5 -6t18.5 3.5t18.5 4.5
q-15 -26 -29 -53.5t-28 -52.5q-12 -21 -23.5 -40.5t-25.5 -33.5t-32.5 -22.5t-44.5 -8.5q-20 0 -29.5 14.5t-9.5 38.5zM356 470q0 11 -8 19.5t-16 8.5q-16 0 -24.5 -10t-13 -23.5t-7.5 -28.5t-8 -25q-11 -22 -24 -36.5t-25 -24t-20 -15t-8 -8.5q0 -7 7 -7q6 0 30 13.5
t50 34.5t46.5 48t20.5 54z" />
    <glyph glyph-name="ucircumflex" unicode="&#xfb;" horiz-adv-x="389" 
d="M68 71q0 16 15 46t33 60t33 54.5t15 31.5t-7 7q-1 0 -20 -6.5t-41 -15t-40.5 -16t-18.5 -10.5q0 -8 5 -8q4 0 11 2t14.5 4.5t14 5t9.5 2.5q-9 -19 -22 -38t-25 -39.5t-20 -41t-8 -42.5q0 -35 23 -51t55 -16q28 0 47 6.5t41 21.5l2 -2q-3 -5 -6.5 -10.5t-3.5 -10.5t5 -5
q7 0 12.5 3t14.5 3q14 0 26 -3t35 -3q11 0 19.5 4.5t8.5 9.5q0 6 -8 6q-4 0 -7.5 -1t-7.5 -1q-9 0 -15.5 3t-6.5 16q0 10 14 39t31.5 62.5t34.5 65t23 46.5q2 5 4.5 8.5t2.5 6.5q0 5 -8 5q-5 0 -22 -6t-35 -13.5t-32.5 -14.5t-14.5 -9q0 -6 5 -6t18.5 3.5t18.5 4.5
q-15 -26 -29 -53.5t-28 -52.5q-12 -21 -23.5 -40.5t-25.5 -33.5t-32.5 -22.5t-44.5 -8.5q-20 0 -29.5 14.5t-9.5 38.5zM261 426q3 -8 12.5 -25.5t22 -35.5t25.5 -31.5t21 -13.5q9 0 9 8q0 1 -9.5 16.5t-21.5 37t-22.5 46.5t-12.5 45q-2 15 -5.5 19t-10.5 4q-10 0 -15 -11
q-2 -5 -14 -19.5t-30 -33.5t-40 -40.5t-44 -39.5q-4 -3 -15.5 -11.5t-11.5 -13.5t7 -5q6 0 28.5 13t48.5 30.5t49 35t29 25.5z" />
    <glyph glyph-name="udieresis" unicode="&#xfc;" horiz-adv-x="389" 
d="M68 71q0 16 15 46t33 60t33 54.5t15 31.5t-7 7q-1 0 -20 -6.5t-41 -15t-40.5 -16t-18.5 -10.5q0 -8 5 -8q4 0 11 2t14.5 4.5t14 5t9.5 2.5q-9 -19 -22 -38t-25 -39.5t-20 -41t-8 -42.5q0 -35 23 -51t55 -16q28 0 47 6.5t41 21.5l2 -2q-3 -5 -6.5 -10.5t-3.5 -10.5t5 -5
q7 0 12.5 3t14.5 3q14 0 26 -3t35 -3q11 0 19.5 4.5t8.5 9.5q0 6 -8 6q-4 0 -7.5 -1t-7.5 -1q-9 0 -15.5 3t-6.5 16q0 10 14 39t31.5 62.5t34.5 65t23 46.5q2 5 4.5 8.5t2.5 6.5q0 5 -8 5q-5 0 -22 -6t-35 -13.5t-32.5 -14.5t-14.5 -9q0 -6 5 -6t18.5 3.5t18.5 4.5
q-15 -26 -29 -53.5t-28 -52.5q-12 -21 -23.5 -40.5t-25.5 -33.5t-32.5 -22.5t-44.5 -8.5q-20 0 -29.5 14.5t-9.5 38.5zM327 400q-15 0 -24.5 -11t-9.5 -25t9.5 -25t24.5 -11t24.5 11t9.5 25t-9.5 25t-24.5 11zM165 400q-15 0 -24.5 -11t-9.5 -25t9.5 -25t24.5 -11t24.5 11
t9.5 25t-9.5 25t-24.5 11z" />
    <glyph glyph-name="yacute" unicode="&#xfd;" horiz-adv-x="389" 
d="M212 78q-14 -21 -33.5 -55t-43.5 -72.5t-51 -77.5t-55.5 -70.5t-58 -51t-57.5 -19.5q-23 0 -36.5 7.5t-21 16t-11 16t-6.5 7.5q-5 0 -5 -6q0 -11 7 -21.5t18 -18.5t25 -13.5t28 -5.5q41 0 79.5 18.5t73.5 49t66 70t57 81.5t47.5 83t36.5 75q20 45 40 77.5t35.5 54.5
t25.5 34.5t10 17.5t-7 5q-4 0 -21.5 -19.5t-43 -48.5t-56 -63t-60.5 -63t-57.5 -48.5t-46.5 -19.5q-12 0 -18 9t-6 20q0 12 8.5 32t22 43.5t28.5 47.5t28.5 44.5t22 35t8.5 17.5q0 5 -7 5q-5 0 -13.5 -3.5t-19 -8.5t-21.5 -10t-21 -9q-35 -13 -44 -19t-9 -11t6 -5
q8 0 21 6.5t24 8.5q-11 -18 -26 -39t-28.5 -43.5t-22.5 -45.5t-9 -45q0 -26 14 -37t39 -11q21 0 36 4t30 13t32.5 24t44.5 37l2 -2v2zM356 470q0 11 -8 19.5t-16 8.5q-16 0 -24.5 -10t-13 -23.5t-7.5 -28.5t-8 -25q-11 -22 -24 -36.5t-25 -24t-20 -15t-8 -8.5q0 -7 7 -7
q6 0 30 13.5t50 34.5t46.5 48t20.5 54z" />
    <glyph glyph-name="thorn" unicode="&#xfe;" horiz-adv-x="389" 
d="M285 206q0 -23 -10.5 -55.5t-28.5 -62t-42 -50t-51 -20.5q-11 0 -22.5 2.5t-20.5 8.5t-15 15t-6 22q0 10 5.5 28.5t15.5 40.5t24 44.5t30 41t34.5 30t37.5 11.5q26 0 37.5 -15t11.5 -41zM341 171q0 22 -6.5 41.5t-19 34.5t-30.5 24t-41 9q-9 0 -22.5 -4t-27 -9t-24.5 -10
t-15 -6q5 9 8 18t7 18q15 39 29 77t25 71q4 11 11.5 33.5t19.5 45t28.5 39.5t36.5 17q13 0 24 -4t19 -14q2 -2 4.5 -9t7.5 -7q6 0 6 8q0 9 -6 17t-15 14t-20 9.5t-21 3.5q-27 0 -48.5 -16.5t-39.5 -41.5t-32.5 -53.5t-26.5 -52.5q-4 -7 -14.5 -30.5t-25 -58t-32 -76
t-36 -85.5t-36 -87t-31.5 -79q-11 -29 -24 -57.5t-28 -55t-33.5 -49.5t-41.5 -41q-5 -5 -11.5 -10t-6.5 -8q0 -6 5 -6t17 8q27 16 54.5 41.5t53 58t48.5 72t41 83.5q17 -28 39 -36t54 -8t63.5 14.5t57 38.5t41 54.5t15.5 63.5z" />
    <glyph glyph-name="ydieresis" unicode="&#xff;" horiz-adv-x="389" 
d="M212 78q-14 -21 -33.5 -55t-43.5 -72.5t-51 -77.5t-55.5 -70.5t-58 -51t-57.5 -19.5q-23 0 -36.5 7.5t-21 16t-11 16t-6.5 7.5q-5 0 -5 -6q0 -11 7 -21.5t18 -18.5t25 -13.5t28 -5.5q41 0 79.5 18.5t73.5 49t66 70t57 81.5t47.5 83t36.5 75q20 45 40 77.5t35.5 54.5
t25.5 34.5t10 17.5t-7 5q-4 0 -21.5 -19.5t-43 -48.5t-56 -63t-60.5 -63t-57.5 -48.5t-46.5 -19.5q-12 0 -18 9t-6 20q0 12 8.5 32t22 43.5t28.5 47.5t28.5 44.5t22 35t8.5 17.5q0 5 -7 5q-5 0 -13.5 -3.5t-19 -8.5t-21.5 -10t-21 -9q-35 -13 -44 -19t-9 -11t6 -5
q8 0 21 6.5t24 8.5q-11 -18 -26 -39t-28.5 -43.5t-22.5 -45.5t-9 -45q0 -26 14 -37t39 -11q21 0 36 4t30 13t32.5 24t44.5 37l2 -2v2zM327 400q-15 0 -24.5 -11t-9.5 -25t9.5 -25t24.5 -11t24.5 11t9.5 25t-9.5 25t-24.5 11zM165 400q-15 0 -24.5 -11t-9.5 -25t9.5 -25
t24.5 -11t24.5 11t9.5 25t-9.5 25t-24.5 11z" />
    <glyph glyph-name="dotlessi" unicode="&#x131;" horiz-adv-x="222" 
d="M193 274q-3 0 -20 -7t-38 -16t-40.5 -17.5t-27.5 -11.5q-9 -4 -9 -11q0 -5 5 -5q9 0 24.5 5t28.5 7q-18 -29 -36 -63.5t-34.5 -65t-31 -51t-24.5 -20.5q-12 0 -19.5 -3t-7.5 -8q0 -6 4 -6.5t18 -0.5q12 0 24 2t23 2q13 0 25.5 -2t25.5 -2q5 0 12.5 0.5t14.5 2.5t12 5.5
t5 10.5q0 4 -7 4q-5 0 -8.5 -2.5t-8.5 -2.5q-10 0 -15.5 8t-5.5 17q0 11 30.5 63t82.5 146q2 4 4 6.5t2 6.5q0 9 -8 9z" />
    <glyph glyph-name="Lslash" unicode="&#x141;" horiz-adv-x="611" 
d="M255 379q15 31 33 60q38 64 88.5 105.5t118.5 41.5q24 0 46.5 -5.5t40 -17.5t28 -31t10.5 -46q0 -24 -10.5 -42t-22.5 -30t-22.5 -19t-10.5 -8q0 -4 7 -4q8 0 21 8.5t25.5 23t21.5 32.5t9 37q0 31 -12.5 53.5t-32.5 37.5t-46 22t-54 7q-39 0 -73 -10.5t-64 -29
t-56.5 -43.5t-48.5 -55q-20 -26 -36 -52t-30 -52l-125 -31q-3 -2 -3 -6q0 -8 3 -8q2 0 3 0.5t3 0.5l111 27q-19 -36 -34.5 -72t-32 -71t-36 -69.5t-44.5 -67.5q-11 -14 -24.5 -22t-13.5 -21q0 -10 4.5 -16t16.5 -6q17 0 26 5.5t17 11.5q8 7 18 12t27 5q18 0 41 -5t46 -12
q24 -7 51 -12t65 -5q22 0 36.5 0.5t26.5 2.5t24 5.5t27 9.5q31 11 58 29t47.5 41.5t32.5 51.5t12 59t-10.5 55t-28 40t-40.5 24t-48 8q-9 0 -31.5 -5t-46.5 -16q-17 -8 -35.5 -24.5t-34 -35t-26 -36t-10.5 -27.5q0 -5 5 -5q2 0 6.5 5t10 12.5t11.5 16.5t11 16q3 4 13.5 17.5
t28 27.5t42 25t56.5 11q24 0 44.5 -8t34.5 -21t22 -30t8 -35q0 -42 -15 -74.5t-41.5 -54.5t-62 -33.5t-76.5 -11.5q-26 0 -51.5 6t-50.5 12t-49 11t-48 5q-34 0 -56.5 -9t-37.5 -19.5t-24.5 -19t-17.5 -8.5q-10 0 -10 5q0 10 16 21q44 31 72 67.5t58 80.5q22 33 44 77.5
t47 92.5l161 40q4 0 4 8q0 7 -4 7q-1 0 -3.5 -1t-4.5 -1z" />
    <glyph glyph-name="lslash" unicode="&#x142;" horiz-adv-x="222" 
d="M326 351q4 0 4 7q0 4 -4 4q-2 0 -3 -0.5t-2 -0.5l-124 -33q11 28 21 55t18 52q4 11 11.5 33.5t19.5 45t28.5 39.5t36.5 17q15 0 24.5 -5.5t15.5 -11.5t9 -11.5t6 -5.5q6 0 6 8q0 9 -6 17t-15 14t-20 9.5t-21 3.5q-27 0 -48.5 -16.5t-39.5 -41.5t-32.5 -53.5t-26.5 -52.5
q-11 -21 -23 -50t-26 -63l-110 -29q-4 0 -4 -7q0 -4 4 -4q2 0 3 0.5t2 0.5l100 27q-17 -41 -33.5 -84t-32 -80.5t-28.5 -65.5t-23 -38q-13 -13 -26 -13q-8 0 -13 1t-7 1q-10 0 -10 -6q0 -5 5 -8t12 -4.5t14 -1.5h10q13 -1 25.5 1t25.5 2q12 0 24 -1.5t24 -1.5q10 0 23 2.5
t13 13.5q0 4 -5 4q-3 0 -6.5 -1t-7.5 -1q-15 0 -18.5 5.5t-3.5 16.5q0 8 9 34.5t23.5 64.5t32.5 84t36 93z" />
    <glyph glyph-name="OE" unicode="&#x152;" horiz-adv-x="889" 
d="M44 224q0 -44 12.5 -84t37 -71.5t61 -50t83.5 -18.5q31 0 58.5 7.5t53 20t49 28.5t47.5 34q12 -21 29.5 -38t39.5 -28.5t46 -17.5t48 -6q55 0 107 16.5t92 47t64 72.5t24 93q0 4 -1.5 13t-4.5 18t-6.5 15.5t-7.5 6.5q-7 0 -7 -7q0 -6 4.5 -15.5t4.5 -35.5q0 -46 -23 -84
t-59 -65t-79.5 -42t-83.5 -15q-34 0 -62 12.5t-48.5 34t-31.5 50.5t-11 62q0 34 11.5 63t31 53t46 42.5t56.5 31.5q10 4 20.5 8t10.5 16t-12.5 18.5t-27 14.5t-27 22.5t-12.5 43.5q0 23 15.5 43t38 34.5t48.5 22.5t47 8q16 0 33 -3t31.5 -10.5t24 -19t9.5 -29.5
q0 -24 -10.5 -36t-35.5 -12q-12 0 -20.5 4.5t-14 9.5t-9 9.5t-5.5 4.5q-4 0 -4 -5q0 -10 6 -19.5t16 -16.5t21 -11t22 -4q29 0 52.5 16.5t23.5 48.5q0 27 -14 44.5t-35.5 28t-46.5 14.5t-47 4q-25 0 -50.5 -3.5t-49.5 -12t-45 -23t-36 -35.5q-19 35 -52 54.5t-73 19.5
q-52 0 -91.5 -21.5t-66.5 -50t-41 -56.5t-14 -40q0 -13 5 -13q8 0 13 15q9 28 27.5 55t43.5 47.5t55.5 33t62.5 12.5q25 0 46 -8t37 -20t25 -26.5t9 -26.5q0 -6 -1.5 -12t-1.5 -12q0 -50 59 -82q9 -5 18.5 -7.5t17.5 -4t13 -3.5t5 -5q0 -2 -24 -7.5t-59 -22.5
q-14 -7 -36.5 -20.5t-44.5 -36.5t-38 -56t-16 -79q0 -5 1 -7.5l3 -7.5q-14 -23 -36 -47.5t-48 -44t-55.5 -32t-58.5 -12.5q-31 0 -55 12.5t-40.5 34.5t-25.5 52t-9 66q0 48 9 98t25.5 97.5t39.5 90t50 76.5q9 11 23 24.5t14 18.5q0 2 -2 4t-4 2q-9 0 -27 -15t-37 -35.5
t-36 -41t-24 -31.5q-35 -57 -59 -119t-24 -128z" />
    <glyph glyph-name="oe" unicode="&#x153;" horiz-adv-x="556" 
d="M9 115q0 -23 6.5 -44t19 -37t31 -25t42.5 -9q23 0 42 3.5t35.5 11t32.5 18.5t34 25q15 -17 28 -28t27 -17.5t30.5 -9.5t38.5 -3q28 0 57.5 11.5t49.5 28.5q5 4 14.5 11t9.5 15q0 7 -7 7q-3 0 -12 -7t-24 -15.5t-35.5 -15.5t-47.5 -7q-17 0 -33.5 7t-29.5 19t-20.5 28
t-5.5 34q11 -2 22 -3.5t22 -1.5q35 0 64.5 5.5t58.5 26.5q12 8 25 22t24.5 30t19 33.5t7.5 32.5q0 24 -17.5 32.5t-37.5 8.5q-24 0 -49.5 -6.5t-51 -17.5t-49 -25t-42.5 -29q-11 32 -37.5 49t-59.5 17q-31 0 -63.5 -15.5t-58.5 -40t-43 -56t-17 -63.5zM260 209
q0 -26 -13.5 -59t-35.5 -62.5t-49.5 -49.5t-55.5 -20q-29 0 -42 19t-13 45q0 21 13 53.5t34 63t46 52t49 21.5q32 0 49.5 -15.5t17.5 -47.5zM479 247q0 -23 -15 -44t-32 -36q-24 -20 -47.5 -27t-54.5 -7q-10 0 -19 2.5t-18 4.5q0 24 8 44.5t36 43.5q64 52 102 52
q11 0 25.5 -8t14.5 -25z" />
    <glyph glyph-name="Scaron" unicode="&#x160;" horiz-adv-x="556" 
d="M140 299q-26 0 -47.5 -10t-36.5 -26.5t-23.5 -38t-8.5 -43.5q0 -47 20.5 -81t55 -56t80.5 -33t98 -11q41 0 82.5 14t74.5 40t53.5 64.5t20.5 88.5q0 38 -14.5 69t-36.5 58t-47 50.5t-47 45.5t-36.5 43t-14.5 44q0 19 7.5 33t20 23t29 13t33.5 4q12 0 29 -3t32 -9
t26 -15.5t11 -23.5q0 -10 -8.5 -19t-21.5 -9q-5 0 -5 -7q0 -6 12.5 -13.5t23.5 -7.5q14 0 24.5 10t10.5 34q0 16 -12.5 30.5t-32 25.5t-43 18t-46.5 7q-25 0 -48.5 -5.5t-42 -18.5t-30 -33t-11.5 -48t14.5 -52.5t36.5 -48t47 -47t47 -50.5t36.5 -58t14.5 -69q0 -33 -15 -62
t-40 -50.5t-59 -34.5t-71 -13q-47 0 -87 8.5t-68.5 25t-44.5 42t-16 59.5q0 49 26 83.5t78 34.5q13 0 27.5 -5.5t20.5 -5.5q7 0 7 9q0 3 -7.5 8t-19.5 10t-27.5 8.5t-30.5 3.5zM383 629q9 0 15 11q2 4 14 19t30 34t39.5 40.5t44.5 39.5q4 3 15.5 11.5t11.5 13.5t-7 5
q-6 0 -28.5 -13t-48.5 -30.5t-49 -35t-29 -25.5q-3 7 -12.5 24.5t-22 35.5t-25.5 32t-21 14q-9 0 -9 -8q0 -2 9.5 -17t21.5 -37t22.5 -46.5t12.5 -44.5q2 -15 5.5 -19t10.5 -4z" />
    <glyph glyph-name="scaron" unicode="&#x161;" horiz-adv-x="278" 
d="M238 225q0 13 -9.5 23.5t-22.5 17.5t-28 10.5t-25 3.5q-31 0 -52 -16t-21 -49q0 -18 9.5 -35t20.5 -34q10 -14 21 -32.5t11 -37.5q0 -29 -19.5 -43.5t-48.5 -14.5q-5 0 -13.5 0.5t-17 2.5t-15 5t-6.5 9q0 5 2 11t2 12q0 11 -6 23.5t-20 12.5q-11 0 -15.5 -9t-4.5 -18
q0 -13 11 -28.5t22 -21.5q10 -6 17 -9.5t14.5 -5t17.5 -2t26 -0.5q18 0 36.5 5t33.5 15.5t24.5 25.5t9.5 35q0 22 -11.5 43.5t-25.5 41.5t-25.5 37t-11.5 28q0 16 10 23.5t26 7.5q7 0 12 -1t10 -3q3 -1 5 -9.5t5.5 -18t10.5 -17.5t20 -8q21 0 21 20zM186 321q9 0 15 11
q2 4 14 19t30 34t39.5 40.5t44.5 39.5q4 3 15.5 11.5t11.5 13.5t-7 5q-6 0 -28.5 -13t-48.5 -30.5t-49 -35t-29 -25.5q-3 7 -12.5 24.5t-22 35.5t-25.5 32t-21 14q-9 0 -9 -8q0 -2 9.5 -17t21.5 -37t22.5 -46.5t12.5 -44.5q2 -15 5.5 -19t10.5 -4z" />
    <glyph glyph-name="Ydieresis" unicode="&#x178;" horiz-adv-x="611" 
d="M280 551q-26 -35 -51 -72.5t-45 -77t-32.5 -82t-12.5 -88.5q0 -30 7 -57.5t22 -48.5t39 -33.5t58 -12.5t65 16.5t58.5 43.5t52 61t45 69.5t36.5 69t28 58.5h2q-2 -30 -18 -83.5t-44.5 -116t-68 -126.5t-88.5 -116.5t-107 -85.5t-122 -33q-45 0 -72 27t-27 67q0 8 1 14
t-1 10q-2 6 -8 6q-5 0 -7.5 -9.5t-2.5 -22.5q0 -27 10.5 -47.5t28 -34.5t40.5 -21t47 -7q45 0 92.5 17t94 47t88 70.5t74.5 87.5t59 99t44.5 103.5t28.5 101.5t10 94q0 34 -10.5 74.5t-30.5 69.5q-2 0 -5.5 -0.5t-3.5 -4.5t5 -20.5t5 -42.5q0 -23 -10.5 -57t-28 -72.5
t-40 -79t-46.5 -75.5t-48.5 -61.5t-44.5 -38.5q-14 -8 -29 -11.5t-27 -3.5q-25 0 -43 13.5t-29.5 33.5t-17 44.5t-5.5 47.5q0 67 20 126.5t43.5 104t43.5 70.5t20 27q0 6 -5 6q-8 0 -29.5 -9t-56.5 -9q-20 0 -37.5 3t-34 6t-33.5 6t-36 3q-18 0 -35 -4.5t-30 -14t-21 -24
t-8 -34.5q0 -11 3.5 -22.5t9.5 -11.5q9 0 9 5t-2 9.5t-2 8.5q0 26 12.5 36t32.5 10q6 0 19.5 -3t29.5 -6t33 -6t29 -3q29 0 55 9t53 17zM496 708q-15 0 -24.5 -11t-9.5 -25t9.5 -25t24.5 -11t24.5 11t9.5 25t-9.5 25t-24.5 11zM334 708q-15 0 -24.5 -11t-9.5 -25t9.5 -25
t24.5 -11t24.5 11t9.5 25t-9.5 25t-24.5 11z" />
    <glyph glyph-name="Zcaron" unicode="&#x17d;" horiz-adv-x="667" 
d="M110 51q61 52 111.5 115.5t101 129.5t107 130.5t129.5 118.5q6 5 15.5 12.5t9.5 11.5q0 9 -9 9q-8 0 -21.5 -6.5t-42.5 -6.5q-32 0 -63 8t-63 18t-64.5 17.5t-65.5 7.5q-23 0 -47 -5.5t-43.5 -17.5t-31.5 -30.5t-12 -45.5q0 -6 1.5 -16t5.5 -20t9.5 -17.5t13.5 -7.5
q5 0 5 5q0 3 -8.5 17t-8.5 40q0 35 24 49.5t55 14.5q26 0 51.5 -6t52.5 -14t57.5 -13.5t66.5 -5.5q23 0 48.5 3t39.5 5l1 -4q-51 -35 -103 -75.5t-104 -91.5t-103.5 -116.5t-102.5 -151.5q-8 -13 -23 -29.5t-29.5 -31.5t-25.5 -26t-11 -12q0 -5 6 -5q1 0 9.5 2.5t21.5 5.5
t28.5 5.5t30.5 2.5q39 0 64.5 -4t51.5 -8q25 -4 56 -8t80 -4q50 0 93.5 12.5t75.5 37t50.5 61.5t18.5 86q0 36 -12 60.5t-20 24.5q-6 0 -6 -7q0 -4 10 -24t10 -53q0 -37 -14 -67.5t-38 -52t-55.5 -33t-66.5 -11.5q-27 0 -53.5 6.5t-53.5 11.5q-26 5 -52.5 8.5t-54.5 3.5
q-26 0 -52 -5t-50 -11zM439 629q9 0 15 11q2 4 14 19t30 34t39.5 40.5t44.5 39.5q4 3 15.5 11.5t11.5 13.5t-7 5q-6 0 -28.5 -13t-48.5 -30.5t-49 -35t-29 -25.5q-3 7 -12.5 24.5t-22 35.5t-25.5 32t-21 14q-9 0 -9 -8q0 -2 9.5 -17t21.5 -37t22.5 -46.5t12.5 -44.5
q2 -15 5.5 -19t10.5 -4z" />
    <glyph glyph-name="zcaron" unicode="&#x17e;" 
d="M81 54q40 20 71 48.5t56 57t44 53t34 38.5q9 7 9 11q0 6 -7 6t-19 -2t-36 -2q-6 0 -15 1t-20 4t-25 5t-31 2q-22 0 -42 -8t-35 -18.5t-24 -22.5t-9 -19q0 -3 3 -3q4 0 6.5 2.5l4.5 4.5q21 21 44 33.5t54 12.5q11 0 23.5 -1t26.5 -3q14 -3 27.5 -5.5t26.5 -2.5l2 -2
q-17 -6 -41 -24t-49.5 -41.5t-50.5 -49.5t-45 -50q-12 -13 -23 -25.5t-25 -23.5q-5 -4 -11 -9t-6 -12q0 -6 6 -6q2 0 5 2t10.5 4.5t20.5 4.5t34 2q16 0 30 -2.5t29 -5.5t32 -5.5t37 -2.5q16 0 27.5 9t19 21t11.5 24t4 18q0 7 -5 7q-4 0 -6.5 -6.5t-7.5 -15t-14 -15t-26 -6.5
q-13 0 -23.5 2.5t-23.5 5.5q-14 3 -31.5 5.5t-46.5 2.5v2zM214 321q9 0 15 11q2 4 14 19t30 34t39.5 40.5t44.5 39.5q4 3 15.5 11.5t11.5 13.5t-7 5q-6 0 -28.5 -13t-48.5 -30.5t-49 -35t-29 -25.5q-3 7 -12.5 24.5t-22 35.5t-25.5 32t-21 14q-9 0 -9 -8q0 -2 9.5 -17
t21.5 -37t22.5 -46.5t12.5 -44.5q2 -15 5.5 -19t10.5 -4z" />
    <glyph glyph-name="florin" unicode="&#x192;" 
d="M76 220q11 0 21.5 4t21.5 4q-11 -44 -24.5 -94.5t-26.5 -99t-23.5 -89.5t-15.5 -65q-5 -26 -10.5 -48t-12.5 -38.5t-16.5 -26t-22.5 -9.5t-17.5 7.5t-7 17t-7 17t-17.5 7.5q-9 0 -15 -7t-6 -22q0 -22 17.5 -32t41.5 -10q33 0 52 22.5t32 49.5q18 39 36 90t35 108
t33.5 116t32.5 112q8 2 15 4t15 2q6 0 10 -3t7.5 -7t7.5 -7t10 -3q13 0 21 8.5t8 21.5q0 19 -13.5 25.5t-28.5 6.5q-10 0 -20.5 -2.5t-20.5 -5.5q7 25 14.5 57t15.5 65.5t17 65t19 56.5t21.5 40.5t25.5 15.5q15 0 21 -8t10 -17.5t9.5 -17.5t18.5 -8q11 0 17 7t6 17
q0 25 -19 35t-41 10q-8 0 -16.5 -1t-17.5 -6q-32 -16 -56 -56t-42.5 -88t-34 -95t-28.5 -77q-13 -5 -24 -5q-8 0 -11.5 3t-6 6t-6.5 6t-14 3q-14 0 -21.5 -9.5t-7.5 -21.5q0 -17 12.5 -24t26.5 -7z" />
    <glyph glyph-name="circumflex" unicode="&#x2c6;" horiz-adv-x="222" 
d="M177 426q3 -8 12.5 -25.5t22 -35.5t25.5 -31.5t21 -13.5q9 0 9 8q0 1 -9.5 16.5t-21.5 37t-22.5 46.5t-12.5 45q-2 15 -5.5 19t-10.5 4q-10 0 -15 -11q-2 -5 -14 -19.5t-30 -33.5t-40 -40.5t-44 -39.5q-4 -3 -15.5 -11.5t-11.5 -13.5t7 -5q6 0 28.5 13t48.5 30.5t49 35
t29 25.5z" />
    <glyph glyph-name="caron" unicode="&#x2c7;" horiz-adv-x="222" 
d="M158 321q9 0 15 11q2 4 14 19t30 34t39.5 40.5t44.5 39.5q4 3 15.5 11.5t11.5 13.5t-7 5q-6 0 -28.5 -13t-48.5 -30.5t-49 -35t-29 -25.5q-3 7 -12.5 24.5t-22 35.5t-25.5 32t-21 14q-9 0 -9 -8q0 -2 9.5 -17t21.5 -37t22.5 -46.5t12.5 -44.5q2 -15 5.5 -19t10.5 -4z" />
    <glyph glyph-name="breve" unicode="&#x2d8;" horiz-adv-x="222" 
d="M151 322q27 0 54.5 15t50 34t37 37.5t14.5 25.5q0 8 -8 8q-4 0 -17 -11.5t-33.5 -25t-47.5 -24.5t-59 -11q-26 0 -39 11.5t-19 25.5t-9.5 25.5t-9.5 11.5q-7 0 -9.5 -3.5t-2.5 -8.5q0 -45 25.5 -77.5t72.5 -32.5z" />
    <glyph glyph-name="dotaccent" unicode="&#x2d9;" horiz-adv-x="222" 
d="M161 400q-15 0 -24.5 -11t-9.5 -25t9.5 -25t24.5 -11t24.5 11t9.5 25t-9.5 25t-24.5 11z" />
    <glyph glyph-name="ring" unicode="&#x2da;" horiz-adv-x="222" 
d="M221 504q33 0 55 -22.5t22 -54.5t-22 -54.5t-55 -22.5t-55 22.5t-22 54.5t22 54.5t55 22.5zM221 534q-22 0 -41.5 -8.5t-34 -23.5t-23 -34.5t-8.5 -40.5t8.5 -40.5t23 -34.5t34 -23.5t41.5 -8.5t41.5 8.5t34 23.5t23 34.5t8.5 40.5t-8.5 40.5t-23 34.5t-34 23.5
t-41.5 8.5z" />
    <glyph glyph-name="ogonek" unicode="&#x2db;" horiz-adv-x="222" 
d="M258 19q-29 -5 -66.5 -15.5t-72 -28t-58 -43.5t-23.5 -63q0 -21 8.5 -35t22.5 -23t31.5 -13t35.5 -4q36 0 72.5 16.5t66.5 35.5q2 2 3 5.5t1 5.5q0 7 -9 7q-4 0 -8 -2q-21 -14 -48.5 -28t-53.5 -14q-35 0 -56.5 17.5t-21.5 40.5q0 27 19.5 48t47.5 37t58 27.5t51 19.5v9z
" />
    <glyph glyph-name="tilde" unicode="&#x2dc;" horiz-adv-x="222" 
d="M30 319q4 0 7.5 8.5t10 18t16.5 18t26 8.5q18 0 33 -5.5t29 -13.5t29.5 -13.5t32.5 -5.5q15 0 29.5 8t26 20t18.5 26.5t7 28.5q0 9 -2 11.5t-4 2.5q-6 0 -9.5 -8t-10 -17.5t-18.5 -17.5t-34 -8q-12 0 -26 5.5t-30 13.5t-32.5 13.5t-33.5 5.5q-20 0 -34 -12t-22.5 -27.5
t-12 -30t-3.5 -19.5q0 -10 7 -10z" />
    <glyph glyph-name="hungarumlaut" unicode="&#x2dd;" horiz-adv-x="222" 
d="M202 470q0 11 -8 19.5t-16 8.5q-16 0 -24.5 -10t-13 -23.5t-7.5 -28.5t-8 -25q-11 -22 -24 -36.5t-25 -24t-20 -15t-8 -8.5q0 -7 7 -7q6 0 30 13.5t50 34.5t46.5 48t20.5 54zM312 470q0 11 -8 19.5t-16 8.5q-16 0 -24.5 -10t-13 -23.5t-7.5 -28.5t-8 -25
q-11 -22 -24 -36.5t-25 -24t-20 -15t-8 -8.5q0 -7 7 -7q6 0 30 13.5t50 34.5t46.5 48t20.5 54z" />
    <glyph glyph-name="endash" unicode="&#x2013;" horiz-adv-x="500" 
d="M0 163l-8 -36h500l8 36h-500z" />
    <glyph glyph-name="emdash" unicode="&#x2014;" horiz-adv-x="1000" 
d="M0 163l-8 -36h1000l8 36h-1000z" />
    <glyph glyph-name="quoteleft" unicode="&#x2018;" horiz-adv-x="222" 
d="M132 252q16 0 25.5 9.5t9.5 25.5q0 13 -11 22t-23 9q-11 0 -17.5 4t-6.5 14q0 22 13 43.5t28 40t28 32.5t13 21t-7 7q-5 0 -21 -14.5t-34 -38t-32 -53t-14 -58.5q0 -22 12 -43t37 -21z" />
    <glyph glyph-name="quoteright" unicode="&#x2019;" horiz-adv-x="222" 
d="M162 480q-16 0 -25.5 -9.5t-9.5 -25.5q0 -13 11 -22t23 -9q11 0 17.5 -4t6.5 -14q0 -22 -13 -43.5t-28 -40t-28 -32.5t-13 -21t7 -7q4 0 20.5 14.5t34.5 38t32 53t14 58.5q0 22 -12 43t-37 21z" />
    <glyph glyph-name="quotesinglbase" unicode="&#x201a;" horiz-adv-x="222" 
d="M74 66q-16 0 -25.5 -9.5t-9.5 -25.5q0 -13 11 -22t23 -9q11 0 17.5 -4t6.5 -14q0 -22 -13 -43.5t-28 -40t-28 -32.5t-13 -21t7 -7q4 0 20.5 14.5t34.5 38t32 53t14 58.5q0 22 -12 43t-37 21z" />
    <glyph glyph-name="quotedblleft" unicode="&#x201c;" horiz-adv-x="389" 
d="M299 252q16 0 25.5 9.5t9.5 25.5q0 13 -11 22t-23 9q-11 0 -17.5 4t-6.5 14q0 22 13 43.5t28 40t28 32.5t13 21t-7 7q-5 0 -21 -14.5t-34 -38t-32 -53t-14 -58.5q0 -22 12 -43t37 -21zM132 252q16 0 25.5 9.5t9.5 25.5q0 13 -11 22t-23 9q-11 0 -17.5 4t-6.5 14
q0 22 13 43.5t28 40t28 32.5t13 21t-7 7q-5 0 -21 -14.5t-34 -38t-32 -53t-14 -58.5q0 -22 12 -43t37 -21z" />
    <glyph glyph-name="quotedblright" unicode="&#x201d;" horiz-adv-x="389" 
d="M159 480q-16 0 -25.5 -9.5t-9.5 -25.5q0 -13 11 -22t23 -9q11 0 17.5 -4t6.5 -14q0 -22 -13 -43.5t-28 -40t-28 -32.5t-13 -21t7 -7q4 0 20.5 14.5t34.5 38t32 53t14 58.5q0 22 -12 43t-37 21zM326 480q-16 0 -25.5 -9.5t-9.5 -25.5q0 -13 11 -22t23 -9q11 0 17.5 -4
t6.5 -14q0 -22 -13 -43.5t-28 -40t-28 -32.5t-13 -21t7 -7q4 0 20.5 14.5t34.5 38t32 53t14 58.5q0 22 -12 43t-37 21z" />
    <glyph glyph-name="quotedblbase" unicode="&#x201e;" horiz-adv-x="389" 
d="M242 66q-16 0 -25.5 -9.5t-9.5 -25.5q0 -13 11 -22t23 -9q11 0 17.5 -4t6.5 -14q0 -22 -13 -43.5t-28 -40t-28 -32.5t-13 -21t7 -7q4 0 20.5 14.5t34.5 38t32 53t14 58.5q0 22 -12 43t-37 21zM75 66q-16 0 -25.5 -9.5t-9.5 -25.5q0 -13 11 -22t23 -9q11 0 17.5 -4
t6.5 -14q0 -22 -13 -43.5t-28 -40t-28 -32.5t-13 -21t7 -7q4 0 20.5 14.5t34.5 38t32 53t14 58.5q0 22 -12 43t-37 21z" />
    <glyph glyph-name="dagger" unicode="&#x2020;" horiz-adv-x="444" 
d="M63 -219q45 105 93 210.5t103 205.5q0 21 4 43t9.5 44t12 44t10.5 44q17 0 33.5 -2.5t33.5 -6.5t33 -6.5t33 -2.5q12 0 24.5 5t12.5 19q0 15 -8.5 19.5t-22.5 4.5q-15 0 -31.5 -3t-34 -7t-35 -7t-33.5 -3q11 31 28 63.5t32.5 61t26.5 50.5t11 34q0 10 -2 18.5t-12 8.5
t-17 -3t-13 -11t-11 -24t-11 -41q-9 -38 -19.5 -78.5t-26.5 -78.5q-32 1 -64.5 10.5t-64.5 9.5q-13 0 -26 -5.5t-13 -20.5q0 -14 13 -18t23 -4q13 0 24 2.5t25 5.5t32.5 5.5t45.5 4.5q-9 -43 -36.5 -87t-57.5 -76q-10 -51 -25 -106.5t-33.5 -110.5t-38.5 -109t-41 -102h14z
" />
    <glyph glyph-name="daggerdbl" unicode="&#x2021;" horiz-adv-x="444" 
d="M77 -216q10 0 17 3t13 11t11 23.5t11 41.5q9 38 19.5 78.5t26.5 78.5q32 -1 64.5 -10.5t64.5 -9.5q13 0 26 5.5t13 20.5q0 14 -13 18t-23 4q-13 0 -24 -2.5t-25 -5.5t-32.5 -5.5t-45.5 -4.5q9 43 36.5 87t57.5 75q0 13 5 35.5t11.5 49t13.5 53.5t11 48q17 0 33.5 -2.5
t33.5 -6.5t33 -6.5t33 -2.5q12 0 24.5 5t12.5 19q0 15 -8.5 19.5t-22.5 4.5q-15 0 -31.5 -3t-34 -7t-35 -7t-33.5 -3q11 31 28 63.5t32.5 61t26.5 50.5t11 34q0 10 -2 18.5t-12 8.5t-17 -3t-13 -11t-11 -24t-11 -41q-9 -38 -19.5 -78.5t-26.5 -78.5q-32 1 -64.5 10.5
t-64.5 9.5q-13 0 -26 -5.5t-13 -20.5q0 -14 13 -18t23 -4q13 0 24 2.5t25 5.5t32.5 5.5t45.5 4.5q-5 -21 -14.5 -43.5t-23 -44.5t-29 -42.5t-30.5 -35.5q1 -21 -2.5 -45.5t-9.5 -48.5t-13 -47t-13 -41q-17 0 -33.5 2.5t-33.5 6.5t-33 6.5t-33 2.5q-12 0 -24.5 -5t-12.5 -19
q0 -15 8.5 -19.5t22.5 -4.5q15 0 31.5 3t34 7t35 7t33.5 3q-11 -32 -28 -64t-32.5 -60.5t-26.5 -50.5t-11 -34q0 -10 2 -18.5t12 -8.5z" />
    <glyph glyph-name="bullet" unicode="&#x2022;" horiz-adv-x="500" 
d="M404 308q0 32 -12 60t-33 49t-49 33t-60 12t-60.5 -12t-49.5 -33t-32.5 -49t-11.5 -60t12 -60t33 -49t49 -33t60 -12t60 12t49 33t33 49t12 60z" />
    <glyph glyph-name="ellipsis" unicode="&#x2026;" horiz-adv-x="1000" 
d="M167 66q-13 0 -23 -8t-10 -25t10 -25t23 -8t23 8t10 25t-10 25t-23 8zM500 66q-13 0 -23 -8t-10 -25t10 -25t23 -8t23 8t10 25t-10 25t-23 8zM833 66q-13 0 -23 -8t-10 -25t10 -25t23 -8t23 8t10 25t-10 25t-23 8z" />
    <glyph glyph-name="perthousand" unicode="&#x2030;" horiz-adv-x="833" 
d="M750 352q-42 0 -81 -26.5t-68.5 -66.5t-47.5 -85.5t-18 -84.5q0 -37 17 -63t57 -26q42 0 81 26t68 65t46.5 84.5t17.5 84.5q0 18 -3.5 34.5t-12 29.5t-22 20.5t-34.5 7.5zM758 334q14 0 30 -9.5t16 -32.5q0 -17 -10.5 -43.5t-27.5 -57t-38.5 -61.5t-44.5 -56t-44.5 -40.5
t-38.5 -15.5q-21 0 -30 9t-9 29q0 14 9.5 40.5t25 57.5t35.5 63t42 58t44 42.5t41 16.5zM116 -21q5 0 12 8.5t13.5 19.5t13 23t10.5 20q19 35 49 89.5t64 115.5t68.5 122.5t62 111.5t44.5 81.5t17 33.5q0 6 -9 6q-5 0 -8 -4q-1 -1 -8.5 -14t-18.5 -32.5t-24 -43t-25.5 -45.5
t-22.5 -40l-15 -27q-7 -13 -27 -48.5t-45.5 -81t-53.5 -96t-51.5 -92.5t-38.5 -70t-15 -30q0 -5 8 -7zM254 590q-42 0 -81 -26.5t-68.5 -66.5t-47.5 -85.5t-18 -84.5q0 -37 17 -63t57 -26q42 0 81 26t68 65t46.5 84.5t17.5 84.5q0 18 -3.5 34.5t-12 29.5t-22 20.5t-34.5 7.5
zM262 572q14 0 30 -9.5t16 -32.5q0 -17 -10.5 -43.5t-27.5 -57t-38.5 -61.5t-44.5 -56t-44.5 -40.5t-38.5 -15.5q-21 0 -30 9t-9 29q0 14 9.5 40.5t25 57.5t35.5 63t42 58t44 42.5t41 16.5zM465 352q-42 0 -81 -26.5t-68.5 -66.5t-47.5 -85.5t-18 -84.5q0 -37 17 -63t57 -26
q42 0 81 26t68 65t46.5 84.5t17.5 84.5q0 18 -3.5 34.5t-12 29.5t-22 20.5t-34.5 7.5zM473 334q14 0 30 -9.5t16 -32.5q0 -17 -10.5 -43.5t-27.5 -57t-38.5 -61.5t-44.5 -56t-44.5 -40.5t-38.5 -15.5q-21 0 -30 9t-9 29q0 14 9.5 40.5t25 57.5t35.5 63t42 58t44 42.5
t41 16.5z" />
    <glyph glyph-name="guilsinglleft" unicode="&#x2039;" horiz-adv-x="222" 
d="M15 148q6 -5 23 -25.5t36 -43t35 -40.5t19 -18q2 0 4 1t2 6q0 3 -7.5 19.5t-17 37t-18 38.5t-10.5 24q4 3 22.5 19t39.5 35t37.5 36.5t16.5 23.5q0 8 -4 8q-5 0 -26.5 -15t-49 -35t-55.5 -40.5t-47 -30.5z" />
    <glyph glyph-name="guilsinglright" unicode="&#x203a;" horiz-adv-x="222" 
d="M205 142q-6 5 -23 25.5t-36 43t-35 40.5t-19 18q-2 0 -4 -1t-2 -6q0 -3 7.5 -19.5t17 -37t18 -38.5t10.5 -24q-4 -3 -22.5 -19t-39.5 -35t-37.5 -36.5t-16.5 -23.5q0 -8 4 -8q5 0 26.5 15t49 35t55.5 40t47 31z" />
    <glyph glyph-name="trademark" unicode="&#x2122;" horiz-adv-x="990" 
d="M239 598h52q32 0 46.5 -20.5t22.5 -49.5h18v88h-334v-88h18q8 29 22.5 49.5t46.5 20.5h52v-310q0 -20 -1 -30.5t-5.5 -16t-14.5 -7t-29 -4.5v-18h156v18q-19 3 -29 4.5t-14.5 7t-5.5 16t-1 30.5v310zM673 209h9l156 318h2v-239q0 -20 -1 -30.5t-5.5 -16t-14.5 -7
t-28 -4.5v-18h155v18q-19 3 -29 4.5t-14.5 7t-5.5 16t-1 30.5v251q0 27 13 42t45 17v18h-93l-167 -322l-161 322h-109v-18q10 0 22 -3.5t22 -10t16.5 -15.5t6.5 -20v-256q0 -31 -10 -45t-42 -18v-18h130v18q-32 4 -42 18t-10 45v231h2z" />
    <glyph glyph-name="minus" unicode="&#x2212;" horiz-adv-x="600" 
d="M445 132v26h-290v-26h290z" />
    <glyph glyph-name="fraction" unicode="&#x2215;" horiz-adv-x="167" 
d="M-167 0h33l468 408h-33z" />
    <glyph glyph-name="fi" unicode="&#xfb01;" horiz-adv-x="444" 
d="M51 181l-33.5 -100.5t-45.5 -119.5t-60 -115t-77 -87q-3 -2 -6 -4.5t-3 -6.5t7 -4q14 0 37 19t48 47t48 60t38 58q41 73 64.5 141.5t44.5 125.5q10 3 22.5 12t23.5 9q4 0 6 -1.5t4 -3.5t5 -3.5t11 -1.5q9 0 16 7.5t7 16.5q0 36 -36 36q-10 0 -23.5 -6.5t-18.5 -14.5l-2 2
q6 14 16.5 43.5t23.5 65.5t29 73.5t34 69t37.5 51.5t39.5 20q19 0 26.5 -8t11 -18t8 -18t18.5 -8q8 0 14 7t6 15q0 12 -6.5 21t-17 15t-22.5 9t-22 3q-33 0 -63 -22t-57 -57.5t-50.5 -80t-43 -90t-34.5 -87t-25 -70.5zM405 274q-3 0 -20 -7t-38 -16t-40.5 -17.5t-27.5 -11.5
q-9 -4 -9 -11q0 -5 5 -5q9 0 24.5 5t28.5 7q-18 -29 -36 -63.5t-34.5 -65t-31 -51t-24.5 -20.5q-12 0 -19.5 -3t-7.5 -8q0 -6 4 -6.5t18 -0.5q12 0 24 2t23 2q13 0 25.5 -2t25.5 -2q5 0 12.5 0.5t14.5 2.5t12 5.5t5 10.5q0 4 -7 4q-5 0 -8.5 -2.5t-8.5 -2.5q-10 0 -15.5 8
t-5.5 17q0 11 30.5 63t82.5 146q2 4 4 6.5t2 6.5q0 9 -8 9zM454 440q-14 0 -23.5 -10.5t-9.5 -22.5t9.5 -22.5t23.5 -10.5t23.5 10.5t9.5 22.5t-9.5 22.5t-23.5 10.5z" />
    <glyph glyph-name="fl" unicode="&#xfb02;" horiz-adv-x="444" 
d="M51 181l-33.5 -100.5t-45.5 -119.5t-60 -115t-77 -87q-3 -2 -6 -4.5t-3 -6.5t7 -4q14 0 37 19t48 47t48 60t38 58q41 73 64.5 141.5t44.5 125.5q10 3 22.5 12t23.5 9q4 0 6 -1.5t4 -3.5t5 -3.5t11 -1.5q9 0 16 7.5t7 16.5q0 36 -36 36q-10 0 -23.5 -6.5t-18.5 -14.5l-2 2
q6 14 16.5 43.5t23.5 65.5t29 73.5t34 69t37.5 51.5t39.5 20q19 0 26.5 -8t11 -18t8 -18t18.5 -8q8 0 14 7t6 15q0 12 -6.5 21t-17 15t-22.5 9t-22 3q-33 0 -63 -22t-57 -57.5t-50.5 -80t-43 -90t-34.5 -87t-25 -70.5zM553 588q-27 0 -48.5 -16.5t-39.5 -41.5t-32.5 -53.5
t-26.5 -52.5q-13 -26 -28 -62t-31 -76.5t-32 -81.5t-30.5 -76t-27.5 -61t-22 -36q-13 -13 -26 -13q-8 0 -13 1t-7 1q-10 0 -10 -6q0 -5 5 -8t12 -4.5t14 -1.5h10q13 -1 25.5 1t25.5 2q12 0 24 -1.5t24 -1.5q10 0 23 2.5t13 13.5q0 4 -5 4q-3 0 -6.5 -1t-7.5 -1
q-15 0 -18.5 5.5t-3.5 16.5q0 7 7.5 29.5t19.5 54.5t27 71t31 80.5t31.5 82.5t27.5 77q4 11 11.5 33.5t19.5 45t28.5 39.5t36.5 17q15 0 24.5 -5.5t15.5 -11.5t9 -11.5t6 -5.5q6 0 6 8q0 9 -6 17t-15 14t-20 9.5t-21 3.5z" />
    </font>
</defs>
</svg>
